Подписывайся на наш канал в Telegram https://t.me/torrentok и получи доступ к торрентам без ограничений!

Инцидент «Феникс» / The Phoenix Incident (2015) WEB-DLRip] [DVO] торрент скачать бесплатно

Инцидент «Феникс» / The Phoenix Incident (2015) WEB-DLRip] [DVO]Производство: США/PCB Productions, PCB Studios
Жанр: фантастика, триллер, детектив
Режиссер: Кит Арем

Актеры
Юрий Ловенталь, Трэвис Уиллингэм, Трой Бэйкер, Лайам О’Брайэн, Майкл Адамуэйт, Брайан Блум, Джэми Тисдэйл, James Patrick Stewart, Файф Симингтон, Джон МакКейн и д.р.

Описание

В 1997-м году вооружённые силы США начали тайную войну против противника неизвестного происхождения. Всего на территории Азии, Европы и России произошло 57 инцидентов. Источники среди военных уверены, что вторжение является возмездием за инцидент, произошедший в Фениксе, штат Аризона, в марте 1997-го года, когда жители города наблюдали в небе таинственные огни, а в горах Эстрелла бесследно исчезли четыре молодых экстремала.
Основанный на реальных событиях скайфай-триллер Кита Арэма, одного из самых известных и креативных продюсеров в игровой индустрии.


Дата мировой премьеры: 16 июня 2015
Релиз от: ViruseProject
Продолжительность: 01: 22: 00
Качество видео: WEB-DLRip
Перевод: Двуголосый профессиональный (ViruseProject)
Субтитры: нет
Реклама: нет
Видео: XviD, 720x400 (16: 9), ~2348 Kbps
Аудио: AC3, 2 ch, 192 Kbps
Общее
Полное имя : The.Phoenix.Incident.2015.400p.WEB-DLRip.ViruseProject.avi
Формат : AVI
Формат/Информация : Audio Video Interleave
Размер файла : 1, 46 Гбайт
Продолжительность : 1 ч. 22 м.
Общий поток : 2 549 Кбит/сек
Программа кодирования : VirtualDubMod 1.5.10.2 (build 2540/release)
Библиотека кодирования : VirtualDubMod build 2540/release
Видео
Идентификатор : 0
Формат : MPEG-4 Visual
Профиль формата : Advanced [email protected]
Настройки формата : BVOP1
Параметр BVOP формата : 1
Параметр QPel формата : Нет
Параметр GMC формата : Без точки перехода
Параметр матрицы формата : Default (MPEG)
Идентификатор кодека : XVID
Идентификатор кодека/Подсказка : XviD
Продолжительность : 1 ч. 22 м.
Битрейт : 2 348 Кбит/сек
Ширина : 720 пикселей
Высота : 400 пикселей
Соотношение сторон : 16: 9
Частота кадров : 23, 976 (24000/1001) кадра/сек
Частота кадров в оригинале : 23, 976 (23976/1000) кадра/сек
Цветовое пространство : YUV
Субдискретизация насыщенности : 4: 2: 0
Битовая глубина : 8 бит
Тип развёртки : Прогрессивная
Метод сжатия : С потерями
Бит/(Пиксели*Кадры) : 0.340
Размер потока : 1, 35 Гбайт (92%)
Библиотека кодирования : XviD 1.2.1 (UTC 2008-12-04)
Аудио
Идентификатор : 1
Формат : AC-3
Формат/Информация : Audio Coding 3
Коммерческое название : Dolby Digital
Идентификатор кодека : 2000
Продолжительность : 1 ч. 22 м.
Вид битрейта : Постоянный
Битрейт : 192 Кбит/сек
Каналы : 2 канала
Channel layout : L R
Частота : 48, 0 КГц
Частота кадров : 31, 250 кадров/сек (1536 SPF)
Метод сжатия : С потерями
Размер потока : 113 Мбайт (8%)
Выравнивание : Разделение по промежуткам
Продолжительность промежутка : 42 мс. (1, 00 видеокадр)
Время предзагрузки промежутка : 500 мс.
Service kind : Complete Main

Скриншоты для ознакомления



Все одноименные релизы в Клубе
Время раздачи: с 10: 00 до 24: 00 (до появления первых 3-5 скачавших)

Другие торренты по теме:

  • Инцидент «Феникс» / The Phoenix Incident (2015) WEB-DL [H.264 / 1080p] [DVO]

  • Посетители, находящиеся в группе Гости, не могут оставлять комментарии в данной новости.