Подписывайся на наш канал в Telegram https://t.me/torrentok и получи доступ к торрентам без ограничений!

Страна Лавкрафта / Lovecraft Country (2020) WEB-DLRip [H.264 / 1080p-LQ] (сезон 1, серии 1 из 10) ViruseProject (обновляемая) [AD] торрент скачать бесплатно

Страна Лавкрафта / Lovecraft Country (2020) WEB-DLRip [H.264 / 1080p-LQ] (сезон 1, серии 1 из 10) ViruseProject (обновляемая) [AD]Производство: США
Жанр: ужасы, фантастика, фэнтези, триллер, драма, детектив
Режиссер: Дэниэл Сакхайм, Ян Деманж, Шерил Дьюнай

Актеры
Джонатан Мэйджерс, Джерни Смоллетт, Кортни Б. Вэнс, Майкл Кеннет Уильямс, Чейз Браун, Онжаню Эллис, Маркус А. Гриффин мл., Эбби Ли, Вунми Моссаку, Джада Харрис и др.

Описание

Ветеран корейской войны Аттикус Фримен возвращается домой, чтобы разыскать пропавшего отца. Призрачная подсказка о том, где он может находиться, - единственное за много лет письмо, полное туманных намёков на загадочное наследие матери Аттикуса, в котором упоминается город Ардхем. Вместе с Аттикусом на поиски мистера Фримена отправляются его дядя Джозеф, любитель ужастиков и составитель безопасных путеводителей по дорогам Америки для темнокожего населения, и подруга детства Летиция, которая в школе разделяла увлечение героя научной фантастикой, а теперь борется за права чёрных.
Дальняя дорога в неизвестную, живущую суевериями глушь опасна и таинственна сама по себе, но страна Лавкрафта не была бы таковой без многоглазых монстров и хтонических щупалец. И создатели сериала обещают зрителям целый калейдоскоп историй разной степени ужасности и фантастичности.


Дата мировой премьеры: 16 августа 2020
Релиз от: ViruseProject
Продолжительность: ~01: 10: 00 серии
Качество видео: WEB-DLRip
Перевод: Двуголосый профессиональный (ViruseProject)
Субтитры: русские
Реклама: присутствуют видео, аудио вставки рекламы
Видео: AVC/H.264, 1920x1080 (16: 9), ~3926 Kbps
Аудио 1: AC3, 2 ch, 192 Kbps - русский
Аудио 2: AAC, 2 ch, 192 Kbps - английский
Общее
Уникальный идентификатор : 214869208622525418641021381571584899862 (0xA1A64DE6B07CDF22AF87514D92B2BB16)
Полное имя : Lovecraft.Country.S01E01.1080p.WEB-DLRip.ViruseProject.mkv
Формат : Matroska
Версия формата : Version 4
Размер файла : 2, 11 Гбайт
Продолжительность : 1 ч. 10 м.
Общий поток : 4 300 Кбит/сек
Дата кодирования : UTC 2020-08-18 18: 33: 06
Программа кодирования : mkvmerge v8.3.0 (\'Over the Horizon\') 64bit
Библиотека кодирования : libebml v1.3.1 + libmatroska v1.4.2
Видео
Идентификатор : 1
Формат : AVC
Формат/Информация : Advanced Video Codec
Профиль формата : [email protected]
Настройки формата : CABAC/4 Ref Frames
Параметр CABAC формата : Да
Параметр RefFrames формата : 4 кадра
Идентификатор кодека : V_MPEG4/ISO/AVC
Продолжительность : 1 ч. 10 м.
Битрейт : 3 926 Кбит/сек
Ширина : 1 920 пикселей
Высота : 1 080 пикселей
Соотношение сторон : 16: 9
Режим частоты кадров : Постоянный
Частота кадров : 23, 976 (24000/1001) кадра/сек
Цветовое пространство : YUV
Субдискретизация насыщенности : 4: 2: 0
Битовая глубина : 8 бит
Тип развёртки : Прогрессивная
Бит/(Пиксели*Кадры) : 0.079
Размер потока : 1, 92 Гбайт (91%)
Язык : English
Default : Да
Forced : Нет
Цветовой диапазон : Limited
Основные цвета : BT.709
Характеристики трансфера : BT.709
Коэффициенты матрицы : BT.709
Аудио #1
Идентификатор : 2
Формат : AC-3
Формат/Информация : Audio Coding 3
Коммерческое название : Dolby Digital
Идентификатор кодека : A_AC3
Продолжительность : 1 ч. 10 м.
Вид битрейта : Постоянный
Битрейт : 192 Кбит/сек
Каналы : 2 канала
Channel layout : L R
Частота : 48, 0 КГц
Частота кадров : 31, 250 кадров/сек (1536 SPF)
Метод сжатия : С потерями
Размер потока : 96, 2 Мбайт (4%)
Заголовок : ViruseProject
Язык : Russian
Service kind : Complete Main
Default : Да
Forced : Нет
Аудио #2
Идентификатор : 3
Формат : AAC LC
Формат/Информация : Advanced Audio Codec Low Complexity
Идентификатор кодека : A_AAC-2
Продолжительность : 1 ч. 10 м.
Битрейт : 192 Кбит/сек
Каналы : 2 канала
Channel layout : L R
Частота : 48, 0 КГц
Частота кадров : 46, 875 кадров/сек (1024 SPF)
Метод сжатия : С потерями
Размер потока : 94, 8 Мбайт (4%)
Язык : English
Default : Нет
Forced : Нет
Текст
Идентификатор : 4
Формат : UTF-8
Идентификатор кодека : S_TEXT/UTF8
Идентификатор кодека/Информация : UTF-8 Plain Text
Продолжительность : 1 ч. 9 м.
Битрейт : 95 бит/сек
Count of elements : 909
Размер потока : 48, 8 Кбайт (0%)
Заголовок : ViruseProject
Язык : Russian
Default : Нет
Forced : Нет

Скриншоты для ознакомления



Все одноименные релизы в Клубе
Время раздачи: с 10: 00 до 24: 00 (до появления первых 3-5 скачавших)

Другие торренты по теме:

  • Мэтт Рафф | Страна Лавкрафта (2018) [FB2]
  • Страна Лавкрафта / Lovecraft Country (2020) WEBRip [H.264 / 720p-LQ] (сезон 1, серия 1 из 10) LakeFilms (обновляемая) [AD]
  • Страна Лавкрафта / Lovecraft Country (2020) WEBRip [H.264 / 1080p-LQ] (сезон 1, серия 1 из 10) LakeFilms (обновляемая) [AD]
  • Страна Лавкрафта / Lovecraft Country (2020) WEB-DLRip [H.264 / 720p-LQ] (сезон 1, серии 1 из 10) OMSKBIRD (обновляемая) [AD]
  • Страна Лавкрафта / Lovecraft Country (2020) WEB-DLRip [H.264 / 1080p-LQ] (сезон 1, серии 1 из 10) OMSKBIRD (обновляемая) [AD]
  • Страна Лавкрафта / Lovecraft Country (2020) WEB-DLRip (сезон 1, серии 1 из 10) ViruseProject (обновляемая)

  • Посетители, находящиеся в группе Гости, не могут оставлять комментарии в данной новости.