Подписывайся на наш канал в Telegram https://t.me/torrentok и получи доступ к торрентам без ограничений!

Твин Пикс / Twin Peaks (2017) BDRip [H.264] (сезон 3, серии 1-18 из 18) NovaMedia торрент скачать бесплатно

Твин Пикс / Twin Peaks (2017) BDRip [H.264] (сезон 3, серии 1-18 из 18) NovaMediaПроизводство: США
Жанр: триллер, детектив, фэнтези, драма, криминал
Режиссер: Дэвид Линч

Актеры
Кайл МакЛоклен, Шерил Ли, Майкл Хорс, Криста Белл Зюхт, Мигель Феррер, Дэвид Линч, Роберт Форстер, Кимми Робертсон, Наоми Уоттс, Лора Дерн и др.

Описание

25 лет назад жители маленького городка Твин Пикс были ошеломлены загадочным убийством королевы школы Лоры Палмер. Но история еще не закончена, события давно минувших дней дают о себе знать.


Возраст: 18+ (зрителям, достигшим 18 лет. запрещено для детей)
Продолжительность: ~00: 58: 00 серия
Качество видео: BDRip
Перевод: многоголосый, профессиональный -NovaMedia
Видео: AVC/H.264, 1024x576 (16: 9), ~2000 Kbps
Аудио: AC3, 384 kbps, 6 chОбщее
Уникальный идентификатор : 185221691383690748401419196426169315254 (0x8B5866721AA52951B69B239532136FB6)
Полное имя : F: Twin Peaks-3Twin.Peaks.s03e01_rip by_Aleksan55.mkv
Формат : Matroska
Версия формата : Version 2
Размер файла : 992 Мбайт
Продолжительность : 58 м. 6 с.
Общий поток : 2386 Кбит/сек
Дата кодирования : UTC 2020-08-16 23: 01: 52
Программа кодирования : mkvmerge v7.8.0 (\'River Man\') 32bit built on Apr 3 2015 12: 11: 22
Библиотека кодирования : libebml v1.3.1 + libmatroska v1.4.2
Видео
Идентификатор : 1
Формат : AVC
Формат/Информация : Advanced Video Codec
Профиль формата : [email protected]
Настройки формата : CABAC/12 Ref Frames
Параметр CABAC формата : Да
Параметр RefFrames формата : 12 кадров
Идентификатор кодека : V_MPEG4/ISO/AVC
Продолжительность : 58 м. 6 с.
Битрейт : 2000 Кбит/сек
Ширина : 1024 пикселя
Высота : 576 пикселей
Соотношение сторон : 16: 9
Режим частоты кадров : Постоянный
Частота кадров : 25, 000 кадров/сек
Цветовое пространство : YUV
Субдискретизация насыщенности : 4: 2: 0
Битовая глубина : 8 бит
Тип развёртки : Прогрессивная
Бит/(Пиксели*Кадры) : 0.136
Размер потока : 812 Мбайт (82%)
Библиотека кодирования : x264 core 160 r3011 cde9a93
Настройки программы : cabac=1/ref=12/deblock=1: -1: -1/analyse=0x3: 0x133/me=umh/subme=9/psy=1/psy_rd=1.00: 1.00/mixed_ref=1/me_range=24/chroma_me=1/trellis=2/8x8dct=1/cqm=0/deadzone=21, 11/fast_pskip=0/chroma_qp_offset=-4/threads=6/lookahead_threads=6/sliced_threads=0/nr=0/decimate=0/interlaced=0/bluray_compat=0/constrained_intra=0/bframes=12/b_pyramid=2/b_adapt=2/b_bias=0/direct=1/weightb=1/open_gop=0/weightp=2/keyint=250/keyint_min=25/scenecut=40/intra_refresh=0/rc_lookahead=50/rc=2pass/mbtree=1/bitrate=2000/ratetol=1.0/qcomp=0.60/qpmin=0/qpmax=69/qpstep=4/cplxblur=20.0/qblur=0.5/ip_ratio=1.40/aq=1: 1.50
Default : Да
Forced : Нет
Цветовой диапазон : Limited
Основные цвета : BT.709
Характеристики трансфера : BT.709
Коэффициенты матрицы : BT.709
Аудио
Идентификатор : 2
Формат : AC-3
Формат/Информация : Audio Coding 3
Коммерческое название : Dolby Digital
Идентификатор кодека : A_AC3
Продолжительность : 58 м. 6 с.
Вид битрейта : Постоянный
Битрейт : 384 Кбит/сек
Каналы : 6 каналов
ChannelLayout : L R C LFE Ls Rs
Частота : 48, 0 КГц
Частота кадров : 31, 250 кадров/сек (1536 SPF)
Метод сжатия : С потерями
Размер потока : 160 Мбайт (16%)
ServiceKind/String : Complete Main
Default : Да
Forced : Нет
Скриншоты для ознакомления



Все одноименные релизы в Клубе
Время раздачи: 24/7 (до появления первых 3-5 скачавших)

Другие торренты по теме:

  • Твин Пикс / Twin Peaks (1990-1991) BDRemux [1080p] (сезоны 1-2, серии 1-30 из 30)
  • Твин Пикс / Twin Peaks (1990) HDRip (сезон 1, серии 1 из 8) AlexFilm (обновляемая) скачать через торрент бесплатно
  • Angelo Badalamenti - Твин Пикс / Twin Peaks (1990) [AAC|WEB-DL|256 кб / с]<Score> скачать через торрент бесплатно
  • Твин Пикс: Вырезанные сцены / Twin Peaks: The Missing Pieces (2014) BDRip [H.264 / 1080p]
  • Твин Пикс / Twin Peaks (1990) WEB-DLRip (сезон 1, серии 1-4 из 8) LostFilm (обновляемая)
  • Твин Пикс / Twin Peaks (1990) BDRip [H.264] (сезон 1, серии 1-4 из 8) LostFilm [MP4|960x720]
  • Твин Пикс / Twin Peaks (1990) BDRip [H.264 / 720p-LQ] (сезон 1, серии 1-4 из 8) LostFilm (обновляемая)
  • Твин Пикс / Twin Peaks (1990) BDRip [H.264 / 1080p] (сезон 1, серии 1-8 из 8) LostFilm, Sci-Fi, ОРТ, РТР, Сербин

  • Посетители, находящиеся в группе Гости, не могут оставлять комментарии в данной новости.