Подписывайся на наш канал в Telegram https://t.me/torrentok и получи доступ к торрентам без ограничений!

Робин из Шервуда / Robin of Sherwood (1984 - 1985) BDRip [H.264 / 720p-LQ] (сезон 1-2, серии 1-13 из 13) НТВ+, Инис торрент скачать бесплатно

Робин из Шервуда / Robin of Sherwood (1984 - 1985) BDRip [H.264 / 720p-LQ] (сезон 1-2, серии 1-13 из 13) НТВ+, ИнисПроизводство: Великобритания/Goldcrest Films International, Harlech Television (HTV)
Жанр: фэнтези, боевик, драма
Режиссер: Роберт Янг, Йен Шарп, Джерри Милл,

Актеры
Майкл Прейд, Питер Ллевелин Уильямс, Рэй Уинстон, Марк Райан, Клив Мантл, Джуди Тротт, Фил Роуз, Роберт Эдди, Джон Абинери, Николас Грейс и др.

Описание

Юный Робин Локсли был избран духом леса - языческим полубожеством Херном, чтобы хранить мир и защищать справедливость на берегах Туманного Альбиона. Робину и его верным соратникам предстоит сразиться не только с алчной знатью, но и с могущественными колдунами, кровожадными викингами и беспощадными крестоносцами. Истинная отвага и подлые предательства, черная магия и древние пророчества, смерть и всепобеждающая любовь - всему есть место в этой саге.


Возраст: 12+ (зрителям, достигшим 12 лет)
Продолжительность: ~00: 55: 00 серия
Качество видео: BDRip
Перевод: Двухголосый профессиональный (НТВ+, Инис)
Субтитры: русские, английские
Видео: AVC/H.264, 960x720 (4: 3), ~4300 kbps
Аудио 1: AC3, 2 ch, 256 kbps - русский (HTB+)
Аудио 2: AC3, 2 ch, 256 kbps - русский (Инис)
Аудио 3: AC3, 2 ch, 256 kbps - английский
Общее
Уникальный идентификатор : 209675098987808301764858311427907585978 (0x9DBDF4863CBBFBEBA1941B71A7A707BA)
Полное имя : F: CINEMARobin of SherwoodRobin.Of.Sherwood.S01E01.1984.rus.eng.mkv
Формат : Matroska
Версия формата : Version 4
Размер файла : 1, 91 Гбайт
Продолжительность : 54 м. 3 с.
Общий поток : 5 070 Кбит/сек
Дата кодирования : UTC 2020-08-17 13: 38: 18
Программа кодирования : mkvmerge v8.2.0 (\'World of Adventure\') 64bit
Библиотека кодирования : libebml v1.3.1 + libmatroska v1.4.2
Видео
Идентификатор : 1
Формат : AVC
Формат/Информация : Advanced Video Codec
Профиль формата : [email protected]
Настройки формата : CABAC/4 Ref Frames
Параметр CABAC формата : Да
Параметр RefFrames формата : 4 кадра
Идентификатор кодека : V_MPEG4/ISO/AVC
Продолжительность : 54 м. 3 с.
Битрейт : 4 300 Кбит/сек
Ширина : 960 пикселей
Высота : 720 пикселей
Соотношение сторон : 4: 3
Режим частоты кадров : Постоянный
Частота кадров : 24, 000 кадра/сек
Цветовое пространство : YUV
Субдискретизация насыщенности : 4: 2: 0
Битовая глубина : 8 бит
Тип развёртки : Прогрессивная
Бит/(Пиксели*Кадры) : 0.259
Размер потока : 1, 62 Гбайт (85%)
Библиотека кодирования : x264 core 130 r2273 b3065e6
Настройки программы : cabac=1/ref=3/deblock=1: 0: 0/analyse=0x3: 0x113/me=umh/subme=9/psy=1/psy_rd=1.00: 0.00/mixed_ref=1/me_range=24/chroma_me=1/trellis=1/8x8dct=1/cqm=0/deadzone=21, 11/fast_pskip=1/chroma_qp_offset=-2/threads=6/lookahead_threads=1/sliced_threads=0/nr=0/decimate=1/interlaced=0/bluray_compat=0/constrained_intra=0/bframes=3/b_pyramid=2/b_adapt=1/b_bias=0/direct=1/weightb=1/open_gop=0/weightp=2/keyint=240/keyint_min=24/scenecut=40/intra_refresh=0/rc_lookahead=40/rc=2pass/mbtree=1/bitrate=4300/ratetol=1.0/qcomp=0.60/qpmin=0/qpmax=69/qpstep=4/cplxblur=20.0/qblur=0.5/ip_ratio=1.40/aq=1: 1.00
Язык : English
Default : Нет
Forced : Да
Аудио #1
Идентификатор : 2
Формат : AC-3
Формат/Информация : Audio Coding 3
Коммерческое название : Dolby Digital
Идентификатор кодека : A_AC3
Продолжительность : 54 м. 3 с.
Вид битрейта : Постоянный
Битрейт : 256 Кбит/сек
Каналы : 2 канала
Channel layout : L R
Частота : 48, 0 КГц
Частота кадров : 31, 250 кадров/сек (1536 SPF)
Метод сжатия : С потерями
Размер потока : 99, 0 Мбайт (5%)
Заголовок : DVO НТВ+
Язык : Russian
Service kind : Complete Main
Default : Да
Forced : Нет
Аудио #2
Идентификатор : 3
Формат : AC-3
Формат/Информация : Audio Coding 3
Коммерческое название : Dolby Digital
Идентификатор кодека : A_AC3
Продолжительность : 54 м. 3 с.
Вид битрейта : Постоянный
Битрейт : 256 Кбит/сек
Каналы : 2 канала
Channel layout : L R
Частота : 48, 0 КГц
Частота кадров : 31, 250 кадров/сек (1536 SPF)
Метод сжатия : С потерями
Размер потока : 99, 0 Мбайт (5%)
Заголовок : DVO Инис
Язык : Russian
Service kind : Complete Main
Default : Нет
Forced : Нет
Аудио #3
Идентификатор : 4
Формат : AC-3
Формат/Информация : Audio Coding 3
Коммерческое название : Dolby Digital
Идентификатор кодека : A_AC3
Продолжительность : 54 м. 3 с.
Вид битрейта : Постоянный
Битрейт : 256 Кбит/сек
Каналы : 2 канала
Channel layout : L R
Частота : 48, 0 КГц
Частота кадров : 31, 250 кадров/сек (1536 SPF)
Метод сжатия : С потерями
Размер потока : 99, 0 Мбайт (5%)
Заголовок : Original
Язык : English
Service kind : Complete Main
Default : Нет
Forced : Нет
Текст #1
Идентификатор : 5
Формат : UTF-8
Идентификатор кодека : S_TEXT/UTF8
Идентификатор кодека/Информация : UTF-8 Plain Text
Продолжительность : 51 м. 56 с.
Битрейт : 53 бит/сек
Count of elements : 458
Размер потока : 20, 3 Кбайт (0%)
Язык : Russian
Default : Нет
Forced : Нет
Текст #2
Идентификатор : 6
Формат : UTF-8
Идентификатор кодека : S_TEXT/UTF8
Идентификатор кодека/Информация : UTF-8 Plain Text
Продолжительность : 51 м. 21 с.
Битрейт : 33 бит/сек
Count of elements : 459
Размер потока : 12, 7 Кбайт (0%)
Язык : English
Default : Нет
Forced : Нет
Общее
Уникальный идентификатор : 224629493480384551212590291184629323806 (0xA8FE11190F74D45DACEF54B0FF10181E)
Полное имя : F: CINEMARobin of SherwoodRobin.Of.Sherwood.S02E01.1985.rus.eng.mkv
Формат : Matroska
Версия формата : Version 4
Размер файла : 1, 94 Гбайт
Продолжительность : 54 м. 50 с.
Общий поток : 5 070 Кбит/сек
Дата кодирования : UTC 2020-08-17 13: 50: 39
Программа кодирования : mkvmerge v8.2.0 (\'World of Adventure\') 64bit
Библиотека кодирования : libebml v1.3.1 + libmatroska v1.4.2
Видео
Идентификатор : 1
Формат : AVC
Формат/Информация : Advanced Video Codec
Профиль формата : [email protected]
Настройки формата : CABAC/4 Ref Frames
Параметр CABAC формата : Да
Параметр RefFrames формата : 4 кадра
Идентификатор кодека : V_MPEG4/ISO/AVC
Продолжительность : 54 м. 50 с.
Битрейт : 4 300 Кбит/сек
Ширина : 960 пикселей
Высота : 720 пикселей
Соотношение сторон : 4: 3
Режим частоты кадров : Постоянный
Частота кадров : 24, 000 кадра/сек
Цветовое пространство : YUV
Субдискретизация насыщенности : 4: 2: 0
Битовая глубина : 8 бит
Тип развёртки : Прогрессивная
Бит/(Пиксели*Кадры) : 0.259
Размер потока : 1, 65 Гбайт (85%)
Библиотека кодирования : x264 core 130 r2273 b3065e6
Настройки программы : cabac=1/ref=3/deblock=1: 0: 0/analyse=0x3: 0x113/me=umh/subme=9/psy=1/psy_rd=1.00: 0.00/mixed_ref=1/me_range=16/chroma_me=1/trellis=1/8x8dct=1/cqm=0/deadzone=21, 11/fast_pskip=1/chroma_qp_offset=-2/threads=6/lookahead_threads=1/sliced_threads=0/nr=0/decimate=1/interlaced=0/bluray_compat=0/constrained_intra=0/bframes=3/b_pyramid=2/b_adapt=1/b_bias=0/direct=1/weightb=1/open_gop=0/weightp=2/keyint=240/keyint_min=24/scenecut=40/intra_refresh=0/rc_lookahead=40/rc=2pass/mbtree=1/bitrate=4300/ratetol=1.0/qcomp=0.60/qpmin=0/qpmax=69/qpstep=4/cplxblur=20.0/qblur=0.5/ip_ratio=1.40/aq=1: 1.00
Язык : English
Default : Нет
Forced : Да
Аудио #1
Идентификатор : 2
Формат : AC-3
Формат/Информация : Audio Coding 3
Коммерческое название : Dolby Digital
Идентификатор кодека : A_AC3
Продолжительность : 54 м. 49 с.
Вид битрейта : Постоянный
Битрейт : 256 Кбит/сек
Каналы : 2 канала
Channel layout : L R
Частота : 48, 0 КГц
Частота кадров : 31, 250 кадров/сек (1536 SPF)
Метод сжатия : С потерями
Размер потока : 100 Мбайт (5%)
Заголовок : DVO НТВ+
Язык : Russian
Service kind : Complete Main
Default : Да
Forced : Нет
Аудио #2
Идентификатор : 3
Формат : AC-3
Формат/Информация : Audio Coding 3
Коммерческое название : Dolby Digital
Идентификатор кодека : A_AC3
Продолжительность : 54 м. 49 с.
Вид битрейта : Постоянный
Битрейт : 256 Кбит/сек
Каналы : 2 канала
Channel layout : L R
Частота : 48, 0 КГц
Частота кадров : 31, 250 кадров/сек (1536 SPF)
Метод сжатия : С потерями
Размер потока : 100 Мбайт (5%)
Заголовок : DVO Инис
Язык : Russian
Service kind : Complete Main
Default : Нет
Forced : Нет
Аудио #3
Идентификатор : 4
Формат : AC-3
Формат/Информация : Audio Coding 3
Коммерческое название : Dolby Digital
Идентификатор кодека : A_AC3
Продолжительность : 54 м. 49 с.
Вид битрейта : Постоянный
Битрейт : 256 Кбит/сек
Каналы : 2 канала
Channel layout : L R
Частота : 48, 0 КГц
Частота кадров : 31, 250 кадров/сек (1536 SPF)
Метод сжатия : С потерями
Размер потока : 100 Мбайт (5%)
Заголовок : Original
Язык : English
Service kind : Complete Main
Default : Нет
Forced : Нет
Текст #1
Идентификатор : 5
Формат : UTF-8
Идентификатор кодека : S_TEXT/UTF8
Идентификатор кодека/Информация : UTF-8 Plain Text
Продолжительность : 53 м. 2 с.
Битрейт : 73 бит/сек
Count of elements : 628
Размер потока : 28, 5 Кбайт (0%)
Язык : Russian
Default : Нет
Forced : Нет
Текст #2
Идентификатор : 6
Формат : UTF-8
Идентификатор кодека : S_TEXT/UTF8
Идентификатор кодека/Информация : UTF-8 Plain Text
Продолжительность : 53 м. 2 с.
Битрейт : 44 бит/сек
Count of elements : 629
Размер потока : 17, 2 Кбайт (0%)
Язык : English
Default : Нет
Forced : Нет
Робин из Шервуда (англ. Robin of Sherwood) — английский сериал 1980-х годов. Сериал состоит из трёх сезон любимого сериалаов, всего 26 серий. В первых двух сезон любимого сериалаах главную роль исполнил Майкл Прейд, в третьем сезон любимого сериалае его заменил Джейсон Коннери.
Как минимум с июня 2010 года сериал возглавляет неофициальный рейтинг кино- и телепостановок о Робине Гуде в IMDB с результатом 8.5/10.
Показы в СССР/России
В СССР было два показа. Летом 1985 года состоялась премьера трёх первых серий первого сезон любимого сериалаа: Робин Гуд и колдун, часть 1, Робин Гуд и колдун, часть 2 и Ведьма из Элсдона. Летом 1987 года состоялся второй показ. Повторили уже показанные серии и показали новые четыре: первый сезон любимого сериала — Алан из долины (под названием Влюблённый менестрель) и Королевский шут, второй сезон любимого сериала — Повелитель деревьев и Злейший враг. Полностью сериал был показан на русском языке только в 1998 году на телеканале ТВ-6, в том числе и третий сезон любимого сериала.
Список серий
Первый сезон любимого сериала
Робин Гуд и колдун, часть 1 - Robin Hood and the Sorcerer, part 1
Робин Гуд и колдун, часть 2 - Robin Hood and the Sorcerer, part 2
Ведьма из Элсдона - The Witch Of Elsdon
Семь бедных рыцарей из Акры - Seven Poor Knights From Acre
Алан из Долины (Влюблённый менестрель) - Alan A Dale
Королевский шут - The King’s Fool
Второй сезон любимого сериала
Пророчество - The Prophecy
Дети Израиля - The Children Of Israel
Повелитель деревьев - Lord Of The Trees
Колдовство - The Enchantment
Мечи Вейланда, часть 1 - The Swords Of Wayland, part 1
Мечи Вейланда, часть 2 - The Swords Of Wayland, part 2
Злейший враг - The Greatest Enemy
Скриншоты для ознакомления




Все одноименные релизы в Клубе
Время раздачи: с 5 до 19 по мск (до появления первых 3-5 скачавших)

Другие торренты по теме:

  • Robin Hood: The Legend of Sherwood / Робин Гуд. Легенда Шервуда (2002) [En] (1.1) License GOG

  • Посетители, находящиеся в группе Гости, не могут оставлять комментарии в данной новости.