Подписывайся на наш канал в Telegram https://t.me/torrentok и получи доступ к торрентам без ограничений!

Месть солдата / A Soldiers Revenge (Soldiers Heart) (2020) BDRip [H.264 / 1080p-LQ] [MVO] торрент скачать бесплатно

Месть солдата / A Soldiers Revenge (Soldiers Heart) (2020) BDRip [H.264 / 1080p-LQ] [MVO]Производство: США/Feifer Worldwide, Caravan West Productions
Жанр: Вестерн
Режиссер: Майкл Фейфер

Актеры
Нил Бледсо, Роб Майес, АннаЛинн МакКорд, Вэл Килмер, Джейк Бьюзи, Майкл Боуэн, Джей Пикетт, Майкл Уэлш, Джеймс Руссо, Питер Шерайко

Описание

Преследуемый ужасами военного времени, солдат гражданской войны, ставший охотником за головами Фрэнк Коннор, тратит свое время на две вещи: виски и беглецов. Когда двое отчаявшихся детей приходят к его порогу и заручаются его помощью, чтобы найти свою пропавшую мать, Фрэнк должен встретиться со своим прошлым, чтобы уничтожить пресловутого майора Бриггса, с которым у него есть свои собственные счёты.


Дата мировой премьеры: 11 июня 2020
Дата российской премьеры: Неизвестна
Релиз от: SergeyAms
Продолжительность: 02: 20: 16
Качество видео: BDRip
Перевод: Многоголосый любительский
Субтитры: Английские
Видео: AVC/H.264, 1920x816, ~4.5 Mbps
Аудио #1: AC3, 2 ch, 256 Kbps - Русский (MVO, Синема УС)
Аудио #2: DTS, 6 ch, 768 Kbps - Английский
Unique ID : 258399744911270577264716447837431324202 (0xC265FB0ADF92E4548BB9889FEDF0DE2A)
Complete name : D: TempNNMA.Soldier\'s.Revenge.2020.1080p.mkv
Format : Matroska
Format version : Version 4/Version 2
File size : 5.40 GiB
Duration : 2h 20mn
Overall bit rate : 5 508 Kbps
Movie name : A Soldier\'s Revenge BDRemux 1080p
Writing library : Lavf57.71.100
Video
ID : 1
Format : AVC
Format/Info : Advanced Video Codec
Format profile : [email protected]
Format settings, CABAC : Yes
Format settings, ReFrames : 5 frames
Codec ID : V_MPEG4/ISO/AVC
Duration : 2h 20mn
Bit rate : 4 500 Kbps
Width : 1 920 pixels
Height : 816 pixels
Display aspect ratio : 2.35: 1
Frame rate mode : Constant
Frame rate : 23.976 fps
Color space : YUV
Chroma subsampling : 4: 2: 0
Bit depth : 8 bits
Scan type : Progressive
Bits/(Pixel*Frame) : 0.120
Stream size : 4.29 GiB (79%)
Writing library : x264 core 157 r2935 545de2f
Encoding settings : cabac=1/ref=5/deblock=1: -2: -2/analyse=0x3: 0x113/me=umh/subme=9/psy=1/psy_rd=1.05: 0.10/mixed_ref=1/me_range=24/chroma_me=1/trellis=2/8x8dct=1/cqm=0/deadzone=21, 11/fast_pskip=0/chroma_qp_offset=-3/threads=13/lookahead_threads=1/sliced_threads=0/nr=0/decimate=0/interlaced=0/bluray_compat=0/constrained_intra=0/bframes=6/b_pyramid=2/b_adapt=2/b_bias=0/direct=1/weightb=1/open_gop=0/weightp=2/keyint=240/keyint_min=24/scenecut=40/intra_refresh=0/rc=2pass/mbtree=0/bitrate=4500/ratetol=1.0/qcomp=0.70/qpmin=3/qpmax=69/qpstep=4/cplxblur=20.0/qblur=0.5/ip_ratio=1.40/pb_ratio=1.30/aq=2: 1.00
Language : English
Default : Yes
Forced : No
Audio #1
ID : 2
Format : AC-3
Format/Info : Audio Coding 3
Mode extension : CM (complete main)
Format settings, Endianness : Big
Codec ID : A_AC3
Duration : 2h 20mn
Bit rate mode : Constant
Bit rate : 256 Kbps
Channel(s) : 2 channels
Channel positions : Front: L R
Sampling rate : 48.0 KHz
Bit depth : 16 bits
Compression mode : Lossy
Stream size : 257 MiB (5%)
Title : Russian MVO Синема УС
Language : Russian
Default : Yes
Forced : No
Audio #2
ID : 3
Format : DTS
Format/Info : Digital Theater Systems
Mode : 16
Format settings, Endianness : Big
Codec ID : A_DTS
Duration : 2h 20mn
Bit rate mode : Constant
Bit rate : 768 Kbps
Channel(s) : 6 channels
Channel positions : Front: L C R, Side: L R, LFE
Sampling rate : 48.0 KHz
Bit depth : 16 bits
Compression mode : Lossy
Stream size : 771 MiB (14%)
Title : English Original
Language : English
Default : No
Forced : No
Text
ID : 4
Format : UTF-8
Codec ID : S_TEXT/UTF8
Codec ID/Info : UTF-8 Plain Text
Title : English full
Language : English
Default : Yes
Forced : No
Menu
00: 00: 00.000 : : Chapter 01
00: 13: 26.764 : : Chapter 02
00: 20: 39.905 : : Chapter 03
00: 32: 31.240 : : Chapter 04
00: 44: 25.704 : : Chapter 05
00: 57: 16.933 : : Chapter 06
01: 09: 32.334 : : Chapter 07
01: 17: 58.048 : : Chapter 08
01: 29: 27.153 : : Chapter 09
01: 43: 40.297 : : Chapter 10
01: 59: 42.175 : : Chapter 11
02: 14: 33.273 : : Chapter 12

Скриншоты для ознакомления



Все одноименные релизы в Клубе
Время раздачи: 24/7 (до появления первых 3-5 скачавших)

Другие торренты по теме:

  • Месть солдата / A Soldiers Revenge (Soldiers Heart) (2020) BDRemux [H.264 / 1080p] [MVO]

  • Посетители, находящиеся в группе Гости, не могут оставлять комментарии в данной новости.