Подписывайся на наш канал в Telegram https://t.me/torrentok и получи доступ к торрентам без ограничений!

Морские паразиты / Sea Fever (2019) BDRip [H.264 / 1080p] [PR] торрент скачать бесплатно

Морские паразиты / Sea Fever (2019) BDRip [H.264 / 1080p] [PR]Производство: Ирландия, США, Великобритания, Швеция, Бельгия, Bright Moving Pictures, Creativity Capital, Fantastic Films, Flexibon Films, Makar Productions
Жанр: Ужасы, фантастика
Режиссер: Ниса Хардиман
Продюсер: Брендан Маккарти, Джон МакДоннел, Шакед Беренсон

Актеры
Гермиона Корфилд, Конни Нильсен, Дюгрей Скотт, Олуэн Фуэре, Джек Хикки, Даг Малмберг, Ардалан Эсмаили, Эли Буаказе

Описание

Ирландия. Студентка Шиобан — настоящий интроверт. Девушка изучает морскую биологию, и ей интереснее смотреть в микроскоп, чем общаться с сокурсниками. Она отправляется проходить практику на небольшом рыболовецком судне, что сулит новые впечатления и богатый материал для научных исследований, хотя команда и не в восторге от пассажирки, так как её рыжие волосы являются плохой приметой. Но тем не менее, капитан решает рискнуть и заплывает в запретную зону, где корабль внезапно застревает. Выясняется, что к бортам судна присосались неизвестные науке морские существа, и они явно способны менять структуру и растворять всё, чего касаются.


Возраст: 18+ (зрителям, достигшим 18 лет. запрещено для детей)
Дата мировой премьеры: 5 сентября 2019
Дата российской премьеры: 1 августа 2020 , Кинологистика
Цифровой релиз: 20 августа 2020, Веста
Релиз от: seleZen
Продолжительность: 01: 34: 13
Качество видео: BDRip
Перевод: Дублированный, Авторский
Субтитры: Русские (Full, SDH), Английские (Full, SDH)
Видео: AVC/H.264, 1920x804, ~14.7 Mbps
Аудио #1: AC3, 6 ch, 384 kbps - Русский (DUB, iTunes)
Аудио #2: AC3, 6 ch, 448 kbps - Русский (AVO, Визгунов)
Аудио #2: AC3, 6 ch, 640 kbps - Английский
General
Unique ID : 55207795686711935780060126175943172067 (0x2988A27AE40CC7376FE560ACF4DB9FE3)
Complete name : E: Video111Sea.Fever.2019.BDRip.1080p.seleZen.mkv
Format : Matroska
Format version : Version 4
File size : 10.6 GiB
Duration : 1 h 34 min
Overall bit rate : 16.2 Mb/s
Movie name : Sea Fever 2019 from селезень
Encoded date : UTC 2020-08-20 07: 46: 35
Writing application : mkvmerge v40.0.0 (\'Old Town Road + Pony\') 64-bit
Writing library : libebml v1.3.9 + libmatroska v1.5.2
Video
ID : 1
Format : AVC
Format/Info : Advanced Video Codec
Format profile : [email protected]
Format settings : CABAC/5 Ref Frames
Format settings, CABAC : Yes
Format settings, Reference frames : 5 frames
Codec ID : V_MPEG4/ISO/AVC
Duration : 1 h 34 min
Bit rate : 14.7 Mb/s
Width : 1 920 pixels
Height : 804 pixels
Display aspect ratio : 2.40: 1
Frame rate mode : Constant
Frame rate : 23.976 (24000/1001) FPS
Color space : YUV
Chroma subsampling : 4: 2: 0
Bit depth : 8 bits
Scan type : Progressive
Bits/(Pixel*Frame) : 0.397
Stream size : 9.67 GiB (91%)
Title : playHD
Writing library : x264 core 144 r2525 40bb568
Encoding settings : cabac=1/ref=5/deblock=1: -3: -3/analyse=0x3: 0x133/me=umh/subme=10/psy=1/psy_rd=1.00: 0.00/mixed_ref=1/me_range=32/chroma_me=1/trellis=2/8x8dct=1/cqm=0/deadzone=21, 11/fast_pskip=0/chroma_qp_offset=-2/threads=12/lookahead_threads=2/sliced_threads=0/nr=0/decimate=0/interlaced=0/bluray_compat=0/constrained_intra=0/bframes=8/b_pyramid=2/b_adapt=2/b_bias=0/direct=3/weightb=1/open_gop=0/weightp=2/keyint=250/keyint_min=23/scenecut=40/intra_refresh=0/rc=crf/mbtree=0/crf=15.4/qcomp=0.60/qpmin=0/qpmax=69/qpstep=4/ip_ratio=1.30/pb_ratio=1.20/aq=3: 0.85
Language : English
Default : Yes
Forced : No
Audio #1
ID : 2
Format : AC-3
Format/Info : Audio Coding 3
Commercial name : Dolby Digital
Codec ID : A_AC3
Duration : 1 h 34 min
Bit rate mode : Constant
Bit rate : 384 kb/s
Channel(s) : 6 channels
Channel layout : L R C LFE Ls Rs
Sampling rate : 48.0 kHz
Frame rate : 31.250 FPS (1536 SPF)
Compression mode : Lossy
Stream size : 259 MiB (2%)
Title : Dub (iTunes)
Language : Russian
Service kind : Complete Main
Default : Yes
Forced : Yes
Audio #2
ID : 3
Format : AC-3
Format/Info : Audio Coding 3
Commercial name : Dolby Digital
Codec ID : A_AC3
Duration : 1 h 34 min
Bit rate mode : Constant
Bit rate : 448 kb/s
Channel(s) : 6 channels
Channel layout : L R C LFE Ls Rs
Sampling rate : 48.0 kHz
Frame rate : 31.250 FPS (1536 SPF)
Compression mode : Lossy
Stream size : 302 MiB (3%)
Title : AVO (Vizgunov)
Language : Russian
Service kind : Complete Main
Default : No
Forced : No
Audio #3
ID : 4
Format : AC-3
Format/Info : Audio Coding 3
Commercial name : Dolby Digital
Codec ID : A_AC3
Duration : 1 h 34 min
Bit rate mode : Constant
Bit rate : 640 kb/s
Channel(s) : 6 channels
Channel layout : L R C LFE Ls Rs
Sampling rate : 48.0 kHz
Frame rate : 31.250 FPS (1536 SPF)
Compression mode : Lossy
Stream size : 431 MiB (4%)
Title : Original
Language : English
Service kind : Complete Main
Default : No
Forced : No
Text #1
ID : 5
Format : UTF-8
Codec ID : S_TEXT/UTF8
Codec ID/Info : UTF-8 Plain Text
Duration : 1 h 26 min
Bit rate : 68 b/s
Count of elements : 879
Stream size : 43.9 KiB (0%)
Title : Full (Khotya-303)
Language : Russian
Default : No
Forced : No
Text #2
ID : 6
Format : UTF-8
Codec ID : S_TEXT/UTF8
Codec ID/Info : UTF-8 Plain Text
Duration : 1 h 28 min
Bit rate : 79 b/s
Count of elements : 1133
Stream size : 51.5 KiB (0%)
Title : SDH
Language : Russian
Default : No
Forced : No
Text #3
ID : 7
Format : UTF-8
Codec ID : S_TEXT/UTF8
Codec ID/Info : UTF-8 Plain Text
Duration : 1 h 34 min
Bit rate : 37 b/s
Count of elements : 929
Stream size : 25.7 KiB (0%)
Title : Full
Language : English
Default : No
Forced : No
Text #4
ID : 8
Format : UTF-8
Codec ID : S_TEXT/UTF8
Codec ID/Info : UTF-8 Plain Text
Duration : 1 h 34 min
Bit rate : 44 b/s
Count of elements : 1331
Stream size : 30.5 KiB (0%)
Title : SDH
Language : English
Default : No
Forced : No
Menu
00: 00: 00.000 : : Chapter 01
00: 13: 49.620 : : Chapter 02
00: 33: 08.320 : : Chapter 03
00: 52: 35.110 : : Chapter 04
01: 11: 14.729 : : Chapter 05
01: 26: 41.571 : : Chapter 06

Скриншоты для ознакомления



Все одноименные релизы в Клубе
Время раздачи: 24/7 (мультитрекер)

Другие торренты по теме:

  • Морские паразиты / Sea Fever (2019) WEB-DLRip [H.264 / 1080p-LQ] [MVO, AD]
  • Морские паразиты / Sea Fever (2019) BDRip [H.264 / 1080p] [DVO] [PR]
  • Морские паразиты / Sea Fever (2019) BDRemux [H.264 / 1080p]
  • Морские паразиты / Sea Fever (2019) BDRip [H.264 / 720p] [PR]
  • Морские паразиты / Sea Fever (2019) BDRip [H.264 / 1080p]
  • Морские паразиты / Sea Fever (2019) BDRip [H.264 / 720p]
  • Морские паразиты / Sea Fever (2019) BDRip [1080p] ATV3
  • Морские паразиты / Sea Fever (2019) BDRip [H.265 / 1080p] [10-bit]

  • Посетители, находящиеся в группе Гости, не могут оставлять комментарии в данной новости.