Подписывайся на наш канал в Telegram https://t.me/torrentok и получи доступ к торрентам без ограничений!

Солнце / Solis (2018) BDRemux [H.264 / 1080p] торрент скачать бесплатно

Солнце / Solis (2018) BDRemux [H.264 / 1080p]Производство: Великобритания/Goldfinch, Premiere Picture, Strathie Film
Жанр: Фантастика, драма
Режиссер: Carl Strathie

Актеры
Стивен Огг, Элис Лоу, Сид Феникс, Генри Даутуэйт, Кейт Куган, Шарлетт Килби, Jonathan Calloway

Описание

Очнувшись, Трой Холлоуэй осознает, что находится в шаттле, направляющемся в сторону солнца. Командир Робертс вместе с командой уже мчится ему на помощь, однако Холлоуэй после недавней потери сына не особо жаждет спасения. Тем не менее командир не позволяет ему спокойно ждать смерти и всячески поддерживает его с помощью слабой радиосвязи, полный решимости вытащить Троя из этого ада.


Релиз от: mike7025
Продолжительность: 01: 31: 55
Качество видео: BDRemux
Перевод: Многоголосый профессиональный
Субтитры: Английские
Видео: AVC/H.264, 1920x1080, ~33.5 Mbps
Аудио 1: AC3, 6 ch, 384 Kbps - Русский (MVO, iTunes)
Аудио 2: AC3, 2 ch, 192 Kbps - Русский (MVO, HDRezka Studio)
Аудио 3: AC3, 6 ch, 384 Kbps - Украинский (MVO, iTunes)
Аудио 4: DTS-HD MA, 6 ch, 3884 Kbps - Английский
General
Unique ID : 168460957503301159894835930495514571375 (0x7EBC6676E3223793A79B0FDE8BA7F26F)
Complete name : G: Solis.2018.REMUX.mkv
Format : Matroska
Format version : Version 4
File size : 24.6 GiB
Duration : 1 h 31 min
Overall bit rate mode : Variable
Overall bit rate : 38.4 Mb/s
Encoded date : UTC 2020-08-20 10: 00: 20
Writing application : mkvmerge v20.0.0 (\'I Am The Sun\') 64-bit
Writing library : libebml v1.3.5 + libmatroska v1.4.8
Video
ID : 1
Format : AVC
Format/Info : Advanced Video Codec
Format profile : [email protected]
Format settings : CABAC/4 Ref Frames
Format settings, CABAC : Yes
Format settings, Reference frames : 4 frames
Codec ID : V_MPEG4/ISO/AVC
Duration : 1 h 31 min
Bit rate mode : Variable
Bit rate : 33.5 Mb/s
Maximum bit rate : 36.0 Mb/s
Width : 1 920 pixels
Height : 1 080 pixels
Display aspect ratio : 16: 9
Frame rate mode : Constant
Frame rate : 24.000 FPS
Color space : YUV
Chroma subsampling : 4: 2: 0
Bit depth : 8 bits
Scan type : Progressive
Bits/(Pixel*Frame) : 0.674
Stream size : 21.5 GiB (87%)
Language : English
Default : Yes
Forced : No
Audio #1
ID : 2
Format : AC-3
Format/Info : Audio Coding 3
Commercial name : Dolby Digital
Codec ID : A_AC3
Duration : 1 h 31 min
Bit rate mode : Constant
Bit rate : 384 kb/s
Channel(s) : 6 channels
Channel layout : L R C LFE Ls Rs
Sampling rate : 48.0 kHz
Frame rate : 31.250 FPS (1536 SPF)
Compression mode : Lossy
Stream size : 252 MiB (1%)
Title : MVO iTunes
Language : Russian
Service kind : Complete Main
Default : Yes
Forced : No
Audio #2
ID : 3
Format : AC-3
Format/Info : Audio Coding 3
Commercial name : Dolby Digital
Codec ID : A_AC3
Duration : 1 h 31 min
Bit rate mode : Constant
Bit rate : 192 kb/s
Channel(s) : 2 channels
Channel layout : L R
Sampling rate : 48.0 kHz
Frame rate : 31.250 FPS (1536 SPF)
Compression mode : Lossy
Stream size : 126 MiB (1%)
Title : MVO HDRezka Studio
Language : Russian
Service kind : Complete Main
Default : No
Forced : No
Audio #3
ID : 4
Format : AC-3
Format/Info : Audio Coding 3
Commercial name : Dolby Digital
Codec ID : A_AC3
Duration : 1 h 31 min
Bit rate mode : Constant
Bit rate : 384 kb/s
Channel(s) : 6 channels
Channel layout : L R C LFE Ls Rs
Sampling rate : 48.0 kHz
Frame rate : 31.250 FPS (1536 SPF)
Compression mode : Lossy
Stream size : 252 MiB (1%)
Title : MVO iTunes
Language : Ukrainian
Service kind : Complete Main
Default : No
Forced : No
Audio #4
ID : 5
Format : DTS XLL
Format/Info : Digital Theater Systems
Commercial name : DTS-HD Master Audio
Codec ID : A_DTS
Duration : 1 h 31 min
Bit rate mode : Variable
Bit rate : 3 884 kb/s
Channel(s) : 6 channels
Channel layout : C L R Ls Rs LFE
Sampling rate : 48.0 kHz
Frame rate : 93.750 FPS (512 SPF)
Bit depth : 24 bits
Compression mode : Lossless
Stream size : 2.49 GiB (10%)
Language : English
Default : No
Forced : No
Text
ID : 6
Format : UTF-8
Codec ID : S_TEXT/UTF8
Codec ID/Info : UTF-8 Plain Text
Duration : 1 h 27 min
Bit rate : 53 b/s
Count of elements : 1053
Stream size : 34.7 KiB (0%)
Language : English
Default : No
Forced : No
Menu
00: 00: 00.000 : en: Opening Credits
00: 03: 02.625 : en: Mayday
00: 07: 34.625 : en: No Coordinates
00: 12: 27.625 : en: Self-Analysis
00: 17: 46.833 : en: Let Go
00: 23: 37.000 : en: Thermal Shock
00: 27: 23.000 : en: Shutdown of the Cooling System
00: 29: 26.875 : en: The Splitter
00: 34: 53.458 : en: Struck
00: 38: 09.500 : en: What are you doing?
00: 41: 50.458 : en: Rising Temperatures
00: 45: 39.292 : en: Memories
00: 48: 38.625 : en: Pointless
00: 53: 55.125 : en: I\'m Sorry
01: 00: 34.625 : en: The only Chance
01: 05: 33.458 : en: Space walk
01: 13: 24.208 : en: Polarizing filter
01: 18: 52.958 : en: Don\'t Give Up!
01: 22: 58.250 : en: The Connection is Online
01: 28: 14.625 : en: End Credits

Скриншоты для ознакомления




Все одноименные релизы в Клубе
Время раздачи: 24/7 (до появления первых 3-5 скачавших)

Другие торренты по теме:

  • Солнце / Solis (2018) WEB-DL [H.264 / 1080p-LQ] [MVO]
  • Солнце / Solis (2018) BDRemux [EN / EN Sub]
  • Солнце / Solis (2018) BDRemux [H.264 / 1080p] [MVO]
  • Солнце / Solis (2018) BDRip [H.264 / 1080p] [MVO]

  • Посетители, находящиеся в группе Гости, не могут оставлять комментарии в данной новости.