Подписывайся на наш канал в Telegram https://t.me/torrentok и получи доступ к торрентам без ограничений!

Ошибки юности (1978) DVDRip торрент скачать бесплатно

Ошибки юности (1978) DVDRipЖанр: Драма
Производство: СССР
Режиссер: Борис Фрумин

Актеры
Станислав Жданько, Марина Неёлова, Наталья Варлей, Николай Караченцов, Михаил Васьков, Николай Пеньков, Изабелла Чирина, Афанасий Кочетков, Нина Мамаева, Владимир Маренков, Анатолий Гаричев, Юрий Дубровин, Вадим Яковлев
Описание : Часто плата за счастье - сделка с собственной совестью и горе, принесенное близким. После службы в армии герой решает испытать себя в условиях Крайнего Севера, где встречает единственную. Но разочарование наступает быстро.
Фильм, снятый в 1978 году, так и не вышел на экраны, хотя многое было в нем новым и интересным. Режиссер и сценарист покинули страну. Трагически погиб актер, исполняющий главную роль. События конца 80-х дали возможность Борису Фрумину вернуться на родину. Он начал с того, что восстановил Ошибки юности.
Фильм посвящен Станиславу Жданько...
Продолжительность: 01: 22: 59


Видеокодек: DivX 5
Качество видео: DVDRip
Видео: DivX, 1549 Кбит/с, 640x480
Аудио: MP3, 2 ch, 128 Кбит/сGeneral
Complete name : D: KinoOshibki.yunosti.1978.DivX.DVDRip.avi
Format : AVI
Format/Info : Audio Video Interleave
File size : 1 001 MiB
Duration : 1h 22mn
Overall bit rate : 1 687 Kbps
Writing application : FairUse Wizard -http://fairusewizard.com
Writing library : The best and REALLY easy backup tool
Video
ID : 0
Format : MPEG-4 Visual
Format settings, BVOP : Yes
Format settings, QPel : No
Format settings, GMC : No warppoints
Format settings, Matrix : Default (H.263)
Muxing mode : Packed bitstream
Codec ID : DX50
Codec ID/Hint : DivX 5
Duration : 1h 22mn
Bit rate : 1 549 Kbps
Width : 640 pixels
Height : 480 pixels
Display aspect ratio : 4: 3
Frame rate : 25.000 fps
Color space : YUV
Chroma subsampling : 4: 2: 0
Bit depth : 8 bits
Scan type : Progressive
Compression mode : Lossy
Bits/(Pixel*Frame) : 0.202
Stream size : 920 MiB (92%)
Writing library : DivX 5.2.1 (WaffleDay) (UTC 2004-09-08)
Audio
ID : 1
Format : MPEG Audio
Format version : Version 1
Format profile : Layer 3
Mode : Joint stereo
Mode extension : MS Stereo
Codec ID : 55
Codec ID/Hint : MP3
Duration : 1h 22mn
Bit rate mode : Constant
Bit rate : 128 Kbps
Channel(s) : 2 channels
Sampling rate : 48.0 KHz
Compression mode : Lossy
Stream size : 76.0 MiB (8%)
Alignment : Aligned on interleaves
Interleave, duration : 40 ms (1.00 video frame)
Interleave, preload duration : 504 ms
Writing library : LAME3.97b
Encoding settings : -m j -V 4 -q 2 -lowpass 17 -b 128
Скриншоты для ознакомления



Скриншоты для ознакомления


Другие торренты по теме:

  • Петр Ташков | Сбои и ошибки ПК. Лечим компьютер своими руками (2014) [PDF]
  • Ошибки человеческого тела / Errors of the Human Body (2012) BDRip [1080p] ATV
  • Ошибки человеческого тела / Errors of the Human Body (2012) BDRip [720p] ATV скачать через торрент бесплатно
  • Ошибки человеческого тела / Errors of the Human Body (2012) BDRip [720p]
  • Ошибки человеческого тела / Errors of the Human Body (2012) BDRip [576p] iPad
  • Василий Леонов | Сбои и ошибки ПК. Лечим компьютер сами (2012) [PDF] скачать через торрент бесплатно
  • Viasat History. Величайшие военные ошибки / Great Military Blunders (1999) TVRip [серии 1-6 из 6]
  • Ошибки прошлого / Rectify (2014) HDRip (сезон 2, серии 1-10 из 10) To4ka скачать через торрент бесплатно

  • Посетители, находящиеся в группе Гости, не могут оставлять комментарии в данной новости.