Подписывайся на наш канал в Telegram https://t.me/torrentok и получи доступ к торрентам без ограничений!

Роман / Romang / Roman (2019) WEB-DLRip [DVO] торрент скачать бесплатно

Роман / Romang / Roman (2019) WEB-DLRip [DVO]Производство: Южная Корея, MAYS Entertainment, Merry Christmas Entertainment
Жанр: Мелодрама, драма
Режиссер: Ли Чхан-гын
Продюсер: Ким Ён-хун

Актеры
Ли Сун-джэ, Чон Ён-сук, Чо Хан-чхоль, Пэ Хэ-сон, Ли Е-вон, Чин Сон-гю, Пак По-гён, Ли Гю-хён, Ким Ги-чхон, Ко Гю-пхиль

Описание

75-летний Нам-бон и 71-летняя Мэ-джа женаты уже 45 лет. За эти годы они во многом стали похожи друг на друга, и теперь у обоих развивается деменция. С каждым днём воспоминания для супругов становятся всё более расплывчатыми, но роман, который они забыли когда-то давно, наоборот, возвращается и начинает играть новыми красками.


Релиз от: Rip by vitolinform
Продолжительность: 01: 52: 13
Качество видео: WEB-DLRip
Перевод: Двуголосый любительский (АрхиAsia)
Субтитры: Английские - отдельным файлом
Видео: Xvid, 720x304, ~1470 kbps
Аудио 1: AC3, 2 ch, 192 Кbps | Русский (DVO, АрхиАзия)
Аудио 2: AC3, 2 ch, 192 Кbps | Корейский
Общее
Полное имя : C: Roman.2019.WEB-DLRipRoman.2019.WEB-DLRip.avi
Формат : AVI
Формат/Информация : Audio Video Interleave
Размер файла : 1, 46 Гбайт
Продолжительность : 1 ч. 52 м.
Общий поток : 1 868 Кбит/сек
Название фильма : Роман/Romang/Roman (2019) WEB-DLRip
Режиссёр : Ли Чхан-гын/Chang-Geun Lee
Жанр : Мелодрама, драма
Программа кодирования : VirtualDubMod 1.5.10.2 (build 2542/release)
Формат оригинала/Имя : Художественный фильм
Авторское право : Корея Южная, MAYS Entertainment, Merry Christmas Entertainment
Примечание : Rip by vitolinform
Видео
Идентификатор : 0
Формат : MPEG-4 Visual
Профиль формата : Advanced [email protected]
Настройки формата : BVOP1
Параметр BVOP формата : 1
Параметр QPel формата : Нет
Параметр GMC формата : Без точки перехода
Параметр матрицы формата : Default (MPEG)
Идентификатор кодека : XVID
Идентификатор кодека/Подсказка : XviD
Продолжительность : 1 ч. 52 м.
Битрейт : 1 470 Кбит/сек
Ширина : 720 пикселей
Высота : 304 пикселя
Соотношение сторон : 2, 35: 1
Частота кадров : 23, 976 (24000/1001) кадра/сек
Частота кадров в оригинале : 23, 976 (23976/1000) кадра/сек
Цветовое пространство : YUV
Субдискретизация насыщенности : 4: 2: 0
Битовая глубина : 8 бит
Тип развёртки : Прогрессивная
Метод сжатия : С потерями
Бит/(Пиксели*Кадры) : 0.280
Размер потока : 1, 15 Гбайт (79%)
Библиотека кодирования : XviD 67
Аудио #1
Идентификатор : 1
Формат : AC-3
Формат/Информация : Audio Coding 3
Коммерческое название : Dolby Digital
Идентификатор кодека : 2000
Продолжительность : 1 ч. 52 м.
Вид битрейта : Постоянный
Битрейт : 192 Кбит/сек
Каналы : 2 канала
Channel layout : L R
Частота : 48, 0 КГц
Частота кадров : 31, 250 кадров/сек (1536 SPF)
Метод сжатия : С потерями
Размер потока : 154 Мбайт (10%)
Выравнивание : Разделение по промежуткам
Продолжительность промежутка : 42 мс. (1, 00 видеокадр)
Время предзагрузки промежутка : 500 мс.
Заголовок : Russian (DVO АрхиАзия)
Service kind : Complete Main
Аудио #2
Идентификатор : 2
Формат : AC-3
Формат/Информация : Audio Coding 3
Коммерческое название : Dolby Digital
Идентификатор кодека : 2000
Продолжительность : 1 ч. 52 м.
Вид битрейта : Постоянный
Битрейт : 192 Кбит/сек
Каналы : 2 канала
Channel layout : L R
Частота : 48, 0 КГц
Частота кадров : 31, 250 кадров/сек (1536 SPF)
Метод сжатия : С потерями
Размер потока : 154 Мбайт (10%)
Выравнивание : Разделение по промежуткам
Продолжительность промежутка : 42 мс. (1, 00 видеокадр)
Время предзагрузки промежутка : 500 мс.
Заголовок : Korean
Service kind : Complete Main

Другие торренты по теме:

  • Робер де Борон | Роман о Граале. Роман о Мерлине / LEstoire del Saint Graal. LEstoire de Merlin (1280) [PDF] [FR]
  • Самый обычный роман (Ненормальный роман) / Gajang Botongui Yeonae / Crazy Romance (2019) WEB-DLRip [DVO]
  • Самый обычный роман (Ненормальный роман) / Gajang Botongui Yeonae / Crazy Romance (2019) WEB-DL [H.264 / 1080p-LQ] [DVO]
  • Роман Добрый | Иван Путилин и Клуб червонных валетов (сборник) (2014) [FB2] скачать через торрент бесплатно
  • Роман Злотников | КОМ (2014) [MP3]
  • Роман Масленников | СуперКонсалтинг-2: PR и маркетинг в сфере В2В-услуг (2013) [FB2] скачать через торрент бесплатно
  • Роман Глушков | Штурм (2014) [FB2] скачать через торрент бесплатно
  • Роман Холодов | Эффективный ремонт сотовых телефонов своими руками (2013) [DVDRip] скачать через торрент бесплатно

  • Посетители, находящиеся в группе Гости, не могут оставлять комментарии в данной новости.