Подписывайся на наш канал в Telegram https://t.me/torrentok и получи доступ к торрентам без ограничений!

Не плачь, мама / Aglama Anne (2018) WEB-DLRip [H.264 / 1080p-LQ] (серии 1-13 из 13) SesDizi [PR] торрент скачать бесплатно

Не плачь, мама / Aglama Anne (2018) WEB-DLRip [H.264 / 1080p-LQ] (серии 1-13 из 13) SesDizi [PR]Производство: Турция/Süreç Film
Жанр: драма
Режиссер: Фериде Кайтан

Актеры
Бирдже Акалай, Озлем Йылмаз, Джансель Эльчин, Сезин Акбашогуллары, Селим Байрактар, Экин Мерт Даймаз, Аслыхан Малбора, Тургай Кантюрк, Хюсейин Сояслан и др.

Описание

Юная студентка Алев совершает легкомысленный поступок - она проводит ночь с Аднаном. Через некоторое время девушка понимает, что она забеременела. Алев до последнего скрывает свою беременность, а потом тайно рожает ребенка в туалете университетского общежития и оставляет малыша на верную смерть. Однако его находят и спасают, а мать судят за попытку убийства. Спустя 18 лет Алев выходит из тюрьмы на свободу, полностью раскаявшись и полной решимости бороться за то, что считает своим.


Продолжительность: ~02: 20: 00 серия
Качество видео: WEB-DLRip
Перевод: Одноголосый любительский (SesDizi)
Видео: AVC/H.264, 1920x1080 (16: 9), ~1160 kbps
Аудио: AAC, 2 ch, 140 kbps
General
Unique ID : 91737611138083557059144228844920874582 (0x4504056F71776938B0A7A4BCC50BA656)
Complete name : J: Aglama.Anne.WEB-DLRip1080p.SesDiziAglama.Anne.s01.e09.WEB-DLRip1080p.mkv
Format : Matroska
Format version : Version 4
File size : 1.31 GiB
Duration : 2 h 23 min
Overall bit rate : 1 306 kb/s
Encoded date : UTC 2020-08-19 22: 49: 09
Writing application : mkvmerge v47.0.0 (\'Black Flag\') 64-bit
Writing library : libebml v1.3.10 + libmatroska v1.5.2
Video
ID : 1
Format : AVC
Format/Info : Advanced Video Codec
Format profile : [email protected]
Format settings : CABAC/3 Ref Frames
Format settings, CABAC : Yes
Format settings, Reference fra : 3 frames
Codec ID : V_MPEG4/ISO/AVC
Duration : 2 h 23 min
Bit rate : 1 164 kb/s
Width : 1 920 pixels
Height : 1 080 pixels
Display aspect ratio : 16: 9
Frame rate mode : Constant
Frame rate : 25.000 FPS
Color space : YUV
Chroma subsampling : 4: 2: 0
Bit depth : 8 bits
Scan type : Progressive
Bits/(Pixel*Frame) : 0.022
Stream size : 1.17 GiB (89%)
Default : Yes
Forced : No
Color range : Limited
Color primaries : BT.709
Transfer characteristics : BT.709
Matrix coefficients : BT.709
Audio
ID : 2
Format : AAC LC
Format/Info : Advanced Audio Codec Low Complexity
Codec ID : A_AAC-2
Duration : 2 h 23 min
Bit rate : 140 kb/s
Channel(s) : 1 channel
Channel layout : C
Sampling rate : 44.1 kHz
Frame rate : 43.066 FPS (1024 SPF)
Compression mode : Lossy
Delay relative to video : -40 ms
Stream size : 143 MiB (11%)
Default : Yes
Forced : No

Скриншоты для ознакомления



Все одноименные релизы в Клубе
Время раздачи: с 11: 00 до 3: 00 (до появления первых 3-5 скачавших)

Другие торренты по теме:

  • Евгений Коновалов - Мама не плачь (2015) [MP3|320 кб / с]<Шансон> скачать через торрент бесплатно

  • Посетители, находящиеся в группе Гости, не могут оставлять комментарии в данной новости.