Подписывайся на наш канал в Telegram https://t.me/torrentok и получи доступ к торрентам без ограничений!

Вот это ночка! / The Sleepover (2020) WEB-DL [H.264 / 1080p-LQ] торрент скачать бесплатно

Вот это ночка! / The Sleepover (2020) WEB-DL [H.264 / 1080p-LQ]Производство: США, Liddell Entertainment
Жанр: Боевик, комедия, приключения, семейный
Режиссер: Триш Си
Продюсер: Мики Лиделл, Пит Шилеймон, Pete Shilaimon

Актеры
Малин Акерман, Джо Манганьелло, Кен Марино, Карла Соуса, Кри Чикчино, Сэди Стэнли, Энука Окума, Эрик Гриффин, Максвелл Симкинс

Описание

Во время веселой ночной вечеринки два брата и две сестры обнаруживают, что их, казалось бы, нормальная мать, домохозяйка Марго на самом деле бывшая высококлассная воровка в программе защиты свидетелей. Когда их мама и папа похищены и вынуждены выполнить последнюю работу с бывшим бойфрендом Марго, братья и сестры объединяются, чтобы спасти своих родителей в течение одной насыщенной событиями ночи, которую они никогда не забудут...


Дата мировой премьеры: 21 августа 2020, ...
Релиз от: TeamHD
Продолжительность: 01: 43: 49
Качество видео: WEB-DL
Перевод: Дублированный (Невафильм)
Субтитры: Русские (Forced), Английские (SDH), Румынские
Видео: AVC/H.264, 1920x1080, ~4420 kbps
Аудио: E-AC3, 6 ch, 640 kbps - Русский
Аудио: E-AC3, 6 ch, 640 kbps - Румынский
Аудио: E-AC3, 6 ch, 768 kbps - Английский
Общее
Уникальный идентификатор : 284245129968290257952641591649930692782 (0xD5D79EE880D14CAB2A8BC8C9AD79C8AE)
Полное имя : F: Фильмы сPIRATBITThe.Sleepover.2020.1080p.NF.WEB-DL.Rus.Rom.Eng-NTG_TeamHD.mkv
Формат : Matroska
Версия формата : Version 4
Размер файла : 4, 60 Гбайт
Продолжительность : 1 ч. 43 м.
Режим общего битрейта : Переменный
Общий поток : 6346 Кбит/сек
Название фильма : The Sleepover (2020) - Release for TeamHD
Дата кодирования : UTC 2020-08-21 07: 26: 05
Программа кодирования : mkvmerge v48.0.0 (\'Fortress Around Your Heart\') 64-bit
Библиотека кодирования : libebml v1.4.0 + libmatroska v1.6.0
Видео
Идентификатор : 1
Формат : AVC
Формат/Информация : Advanced Video Codec
Профиль формата : [email protected]
Настройки формата : CABAC/3 Ref Frames
Параметр CABAC формата : Да
Параметр RefFrames формата : 3 кадра
Идентификатор кодека : V_MPEG4/ISO/AVC
Продолжительность : 1 ч. 43 м.
Вид битрейта : Переменный
Битрейт : 4420 Кбит/сек
Максимальный битрейт : 6630 Кбит/сек
Ширина : 1920 пикселей
Высота : 1080 пикселей
Соотношение сторон : 16: 9
Режим частоты кадров : Постоянный
Частота кадров : 24, 000 кадра/сек
Цветовое пространство : YUV
Субдискретизация насыщенности : 4: 2: 0
Битовая глубина : 8 бит
Тип развёртки : Прогрессивная
Бит/(Пиксели*Кадры) : 0.089
Размер потока : 3, 11 Гбайт (68%)
Библиотека кодирования : x264 core 148 r2722 1b0121b
Настройки программы : cabac=1/ref=3/deblock=1: 0: 0/analyse=0x1: 0x111/me=umh/subme=10/psy=1/psy_rd=1.00: 0.00/mixed_ref=1/me_range=24/chroma_me=1/trellis=2/8x8dct=0/cqm=0/deadzone=21, 11/fast_pskip=1/chroma_qp_offset=-2/threads=8/lookahead_threads=1/sliced_threads=0/nr=0/decimate=1/interlaced=0/bluray_compat=0/stitchable=1/constrained_intra=0/bframes=2/b_pyramid=0/b_adapt=2/b_bias=0/direct=3/weightb=1/open_gop=0/weightp=2/keyint=250/keyint_min=24/scenecut=0/intra_refresh=0/rc_lookahead=48/rc=2pass/mbtree=1/bitrate=4420/ratetol=1.0/qcomp=0.50/qpmin=6/qpmax=51/qpstep=4/cplxblur=20.0/qblur=0.5/vbv_maxrate=6630/vbv_bufsize=8840/nal_hrd=vbr/filler=0/ip_ratio=1.40/aq=1: 1.00
Default : Да
Forced : Нет
Аудио #1
Идентификатор : 2
Формат : E-AC-3
Формат/Информация : Enhanced AC-3
Коммерческое название : Dolby Digital Plus
Идентификатор кодека : A_EAC3
Продолжительность : 1 ч. 43 м.
Вид битрейта : Постоянный
Битрейт : 640 Кбит/сек
Каналы : 6 каналов
ChannelLayout : L R C LFE Ls Rs
Частота : 48, 0 КГц
Частота кадров : 31, 250 кадров/сек (1536 SPF)
Метод сжатия : С потерями
Размер потока : 475 Мбайт (10%)
Язык : Russian
ServiceKind/String : Complete Main
Default : Да
Forced : Нет
Аудио #2
Идентификатор : 3
Формат : E-AC-3
Формат/Информация : Enhanced AC-3
Коммерческое название : Dolby Digital Plus
Идентификатор кодека : A_EAC3
Продолжительность : 1 ч. 43 м.
Вид битрейта : Постоянный
Битрейт : 640 Кбит/сек
Каналы : 6 каналов
ChannelLayout : L R C LFE Ls Rs
Частота : 48, 0 КГц
Частота кадров : 31, 250 кадров/сек (1536 SPF)
Метод сжатия : С потерями
Размер потока : 475 Мбайт (10%)
Язык : Romanian
ServiceKind/String : Complete Main
Default : Нет
Forced : Нет
Аудио #3
Идентификатор : 4
Формат : E-AC-3 JOC
Формат/Информация : Enhanced AC-3 with Joint Object Coding
Коммерческое название : Dolby Digital Plus with Dolby Atmos
Идентификатор кодека : A_EAC3
Продолжительность : 1 ч. 43 м.
Вид битрейта : Постоянный
Битрейт : 768 Кбит/сек
Каналы : 6 каналов
ChannelLayout : L R C LFE Ls Rs
Частота : 48, 0 КГц
Частота кадров : 31, 250 кадров/сек (1536 SPF)
Метод сжатия : С потерями
Размер потока : 570 Мбайт (12%)
Заголовок : English
Язык : English
ServiceKind/String : Complete Main
Default : Нет
Forced : Нет
ComplexityIndex : 16
NumberOfDynamicObjects : 15
BedChannelCount/String : 1 канал
BedChannelConfiguration : LFE
Текст #1
Идентификатор : 5
Формат : UTF-8
Идентификатор кодека : S_TEXT/UTF8
Идентификатор кодека/Информация : UTF-8 Plain Text
Продолжительность : 1 ч. 39 м.
Битрейт : 2 бит/сек
ElementCount : 30
Размер потока : 1, 91 Кбайт (0%)
Заголовок : Forced
Язык : Russian
Default : Да
Forced : Нет
Текст #2
Идентификатор : 6
Формат : UTF-8
Идентификатор кодека : S_TEXT/UTF8
Идентификатор кодека/Информация : UTF-8 Plain Text
Продолжительность : 1 ч. 40 м.
Битрейт : 120 бит/сек
ElementCount : 1607
Размер потока : 88, 1 Кбайт (0%)
Язык : Russian
Default : Нет
Forced : Нет
Текст #3
Идентификатор : 7
Формат : UTF-8
Идентификатор кодека : S_TEXT/UTF8
Идентификатор кодека/Информация : UTF-8 Plain Text
Продолжительность : 1 ч. 35 м.
Битрейт : 89 бит/сек
ElementCount : 1772
Размер потока : 62, 5 Кбайт (0%)
Язык : English
Default : Нет
Forced : Нет
Текст #4
Идентификатор : 8
Формат : UTF-8
Идентификатор кодека : S_TEXT/UTF8
Идентификатор кодека/Информация : UTF-8 Plain Text
Продолжительность : 1 ч. 35 м.
Битрейт : 102 бит/сек
ElementCount : 2025
Размер потока : 71, 8 Кбайт (0%)
Заголовок : SDH
Язык : English
Default : Нет
Forced : Нет
Текст #5
Идентификатор : 9
Формат : UTF-8
Идентификатор кодека : S_TEXT/UTF8
Идентификатор кодека/Информация : UTF-8 Plain Text
Продолжительность : 1 ч. 40 м.
Битрейт : 77 бит/сек
ElementCount : 1572
Размер потока : 56, 5 Кбайт (0%)
Язык : Romanian
Default : Нет
Forced : Нет

Скриншоты для ознакомления



Все одноименные релизы в Клубе
Время раздачи: 24/7 (мультитрекер)

Другие торренты по теме:

  • VA - Ночка ноченька. Суперсборник русского шансона (2015) [MP3|256 кб / с]<Шансон> скачать через торрент бесплатно
  • Марина Серова | Карнавальная ночка (2016) [FB2]
  • Оксана Білозір - Україночка (1993) [FLAC|Lossless|image + .cue] <Pop>
  • Souryo to Majiwaru Shikiyoku no Yoru ni... | Жаркая ночка с монахом [2017, TV-версия, 12] BDRip 1080p raw
  • Следствие вели... с Леонидом Каневским. Карнавальная ночка (29.12.2019). SATRip

  • Посетители, находящиеся в группе Гости, не могут оставлять комментарии в данной новости.