Подписывайся на наш канал в Telegram https://t.me/torrentok и получи доступ к торрентам без ограничений!

Пираты Эдельвейса / Edelweisspiraten (2004) DVDRip (AVO) торрент скачать бесплатно

Пираты Эдельвейса / Edelweisspiraten (2004) DVDRip (AVO)Производство: Германия, Швейцария, Нидерланды, Люксембург/Beauftragter der Bundesregierung fur Angelegenheiten der Kultur und der Medien (BKM), Filmforderungsanstalt (FFA), Filmstiftung Nordrhein-Westfalen и др.
Жанр: Драма, Военный, История
Режиссер: Нико фон Глазов
Продюсер: Дэниэл Брюше, Нико фон Глазов, Антье Пауль Лайнбергер

Актеры
Йохен Никель, Иван Стебунов, Бела Б. Фельзенхаймер, Анна Тальбах, Ян Деклер, Симон Таль, Жан Ёюлих, Флориан Уилкен, Доминик Бромма, Йоханнес Шаллер

Описание

Фильм рассказывает малоизвестную историю о народном антигитлеровском сопротивлении в Кёльне в 1943-45 годах. История Пиратов Эдельвейса довольно долго скрывалась и заретушёвывалась официальными немецкими историками — ведь антифашистские сопротивленцы Кёльна не укладывались в прокрустово ложе западной историографии.


Возраст: этот продукт не был классифицирован
Продолжительность: 01: 36: 28
Качество видео: DVDRip
Перевод: Авторский (Юрий Живов)
Язык озвучки: Русский
Субтитры: Нет
Видео: DivX, 688x384, ~1370 kbps
Аудио 1: AC3, 2 ch, 192 kbps - Русский (AVO)
Аудио 2: AC3, 6 ch, 448 kbps - Немецкий (Оригинал)
Complete name : H: Piraty_Edelweisa.2004.DVDRip.1, 4gb.avi
Format : AVI
Format/Info : Audio Video Interleave
File size : 1.37 GiB
Duration : 1h 36mn
Overall bit rate : 2 030 Kbps
Writing application : FairUse Wizard -http://fairusewizard.com
Writing library : The best and REALLY easy backup tool
Video
ID : 0
Format : MPEG-4 Visual
Format settings, BVOP : No
Format settings, QPel : No
Format settings, GMC : No warppoints
Format settings, Matrix : Default (H.263)
Codec ID : DX50
Codec ID/Hint : DivX 5
Duration : 1h 36mn
Bit rate : 1 375 Kbps
Width : 688 pixels
Height : 384 pixels
Display aspect ratio : 16: 9
Frame rate : 25.000 fps
Color space : YUV
Chroma subsampling : 4: 2: 0
Bit depth : 8 bits
Scan type : Progressive
Compression mode : Lossy
Bits/(Pixel*Frame) : 0.208
Stream size : 949 MiB (68%)
Writing library : DivX 5.2.1 Beta (UTC 2004-09-08)
Audio #1
ID : 1
Format : AC-3
Format/Info : Audio Coding 3
Mode extension : CM (complete main)
Format settings, Endianness : Big
Codec ID : 2000
Duration : 1h 36mn
Bit rate mode : Constant
Bit rate : 192 Kbps
Channel(s) : 2 channels
Channel positions : Front: L R
Sampling rate : 48.0 KHz
Frame rate : 31.250 fps (1536 spf)
Compression mode : Lossy
Stream size : 132 MiB (9%)
Alignment : Split accross interleaves
Interleave, duration : 40 ms (1.00 video frame)
Interleave, preload duration : 500 ms
Audio #2
ID : 2
Format : AC-3
Format/Info : Audio Coding 3
Mode extension : CM (complete main)
Format settings, Endianness : Big
Codec ID : 2000
Duration : 1h 36mn
Bit rate mode : Constant
Bit rate : 448 Kbps
Channel(s) : 6 channels
Channel positions : Front: L C R, Side: L R, LFE
Sampling rate : 48.0 KHz
Frame rate : 31.250 fps (1536 spf)
Compression mode : Lossy
Stream size : 309 MiB (22%)
Alignment : Split accross interleaves
Interleave, duration : 40 ms (1.00 video frame)
Interleave, preload duration : 500 ms

Скриншоты для ознакомления



Все одноименные релизы в Клубе
Время раздачи: с 19: 00 до 22: 00 МСК, ежедневно (до появления первых 3-5 скачавших)

Другие торренты по теме:

  • Пираты / Pirates (2014) HDTVRip
  • Mouretsu Pirates - Akuu no Shinen | Moretsu Pirates: Abyss of Hyperspace | Лихие космические пираты - Бездна Гиперпространства [2014, MV] BDrip 1080p raw скачать через торрент бесплатно
  • Пираты / Hae-jeok: Ba-da-ro gan san-jeok (2014) BDRip [1080p]
  • Пираты Карибского моря: Квадрология / Pirates of the Caribbean: Quadrilogy (2003,2006,2007,2011) BDRip [720p] скачать через торрент бесплатно
  • Пираты / Pirates (2014) HDRip [576p] iPad скачать через торрент бесплатно
  • Black Lagoon | Пираты «Черной лагуны» | Чёрная лагуна [2006, TV + Sp, 24 + 7 эп.] BDRip 1080p Hi10P raw + rus
  • Азиатские пираты - Раздаю всем сердцем (2015, AMV, 1 эп.) WEB-DLRip 720p Raw скачать через торрент бесплатно
  • Pirates! Showdown 1.1.50 - (Пираты! Абордаж) Морская стратегия [En] скачать через торрент бесплатно

  • Посетители, находящиеся в группе Гости, не могут оставлять комментарии в данной новости.