Подписывайся на наш канал в Telegram https://t.me/torrentok и получи доступ к торрентам без ограничений!

Агент Лев / Le lion (2020) WEB-DL [H.264 / 1080p-LQ] [UKR, FRA] торрент скачать бесплатно

Агент Лев / Le lion (2020) WEB-DL [H.264 / 1080p-LQ] [UKR, FRA]Производство: Франция, Бельгия/Monkey Pack Films, TF1 Studio, Pathé
Жанр: Комедия
Режиссер: Людовик Кольбо-Жюстен

Актеры
Дани Бун, Филипп Катрин, Энни Серра, Самуэль Жуи, Софи Вербек, Кароль Брана, Бенуа Петре, Аксель Устун, Матью Ларду, Оливье Са

Описание

Психиатр пытается понять, в чём проблема его нового пациента: тот утверждает, что он секретный шпион международного уровня по кличке Агент Лев. Но когда на глазах доктора похищают его невесту, ему ничего не остаётся, как обратиться за помощью к этому странному спецагенту.


Возраст: 12+ (зрителям, достигшим 12 лет)
Дата мировой премьеры: 14 января 2020
Дата премьеры в России: 6 августа 2020

Продолжительность: 01: 35: 24
Качество видео: WEB-DL
Перевод : дублированный (украинский)
Язык озвучки : украинский, французский
Субтитры: отсутствуют
Видео: AVC/H.264, 1916x800, ~4560 Kbps
Аудио #1: AC3, 2 ch, 192 Kbps - Украинский
Аудио #2: AC3, 6 ch, 384 Kbps - Французский
Общее
Уникальный идентификатор : 239840846141524103436799312176921005442 (0xB46FAAAFF0565F39B78C5B971EB54D82)
Полное имя : Le.lion.(2020).WEB-DL.1080p.Ukr.Fra.mkv
Формат : Matroska
Версия формата : Version 4
Размер файла : 3, 43 Гбайт
Продолжительность : 1 ч. 35 м.
Общий поток : 5140 Кбит/сек
Дата кодирования : UTC 2020-08-16 09: 36: 43
Программа кодирования : mkvmerge v8.3.0 (\'Over the Horizon\') 64bit
Библиотека кодирования : libebml v1.3.1 + libmatroska v1.4.2
Видео
Идентификатор : 1
Формат : AVC
Формат/Информация : Advanced Video Codec
Профиль формата : [email protected]
Настройки формата : CABAC/5 Ref Frames
Параметр CABAC формата : Да
Параметр RefFrames формата : 5 кадров
Идентификатор кодека : V_MPEG4/ISO/AVC
Продолжительность : 1 ч. 35 м.
Битрейт : 4562 Кбит/сек
Ширина : 1916 пикселей
Высота : 800 пикселей
Соотношение сторон : 2, 40: 1
Режим частоты кадров : Постоянный
Частота кадров : 24, 000 кадра/сек
Цветовое пространство : YUV
Субдискретизация насыщенности : 4: 2: 0
Битовая глубина : 8 бит
Тип развёртки : Прогрессивная
Бит/(Пиксели*Кадры) : 0.124
Размер потока : 3, 04 Гбайт (89%)
Default : Да
Forced : Нет
Цветовой диапазон : Limited
Основные цвета : BT.709
Характеристики трансфера : BT.709
Коэффициенты матрицы : BT.709
Аудио #1
Идентификатор : 2
Формат : AC-3
Формат/Информация : Audio Coding 3
Коммерческое название : Dolby Digital
Идентификатор кодека : A_AC3
Продолжительность : 1 ч. 35 м.
Вид битрейта : Постоянный
Битрейт : 192 Кбит/сек
Каналы : 2 канала
Channel layout : L R
Частота : 48, 0 КГц
Частота кадров : 31, 250 кадров/сек (1536 SPF)
Битовая глубина : 16 бит
Метод сжатия : С потерями
Размер потока : 131 Мбайт (4%)
Заголовок : DUB | AAASound
Язык : Ukrainian
ServiceKind/String : Complete Main
Default : Да
Forced : Нет
Аудио #2
Идентификатор : 3
Формат : AC-3
Формат/Информация : Audio Coding 3
Коммерческое название : Dolby Digital
Идентификатор кодека : A_AC3
Продолжительность : 1 ч. 35 м.
Вид битрейта : Постоянный
Битрейт : 384 Кбит/сек
Каналы : 6 каналов
Channel layout : L R C LFE Ls Rs
Частота : 48, 0 КГц
Частота кадров : 31, 250 кадров/сек (1536 SPF)
Битовая глубина : 16 бит
Метод сжатия : С потерями
Размер потока : 262 Мбайт (7%)
Язык : French
ServiceKind/String : Complete Main
Default : Нет
Forced : Нет
Меню
00: 00: 00.000 : en: Chapitre 1
00: 10: 23.625 : en: Chapitre 2
00: 17: 16.166 : en: Chapitre 3
00: 30: 53.291 : en: Chapitre 4
00: 40: 09.166 : en: Chapitre 5
00: 50: 30.958 : en: Chapitre 6
01: 00: 05.333 : en: Chapitre 7
01: 09: 52.791 : en: Chapitre 8
01: 21: 04.125 : en: Chapitre 9
01: 30: 45.083 : en: Chapitre 10
Скриншоты для ознакомления


Все одноименные релизы в Клубе Время раздачи: 24/7 (мультитрекерная раздача)

Другие торренты по теме:

  • Агент Лев / Le lion (2020) WEB-DLRip [MVO] [AD]
  • Агент Лев / Le lion (2020) WEB-DLRip [H.264 / 1080p-LQ] [MVO] [AD]
  • Агент Лев / Le lion (2020) WEB-DLRip [MVO]
  • Агент Лев / Le lion (2020) WEB-DL [H.264 / 1080p-LQ] [MVO]
  • Агент Лев / Le lion (2020) WEB-DLRip [H.264] [MVO]
  • Агент Лев / Le lion (2020) WEB-DLRip [UKR]

  • Посетители, находящиеся в группе Гости, не могут оставлять комментарии в данной новости.