Подписывайся на наш канал в Telegram https://t.me/torrentok и получи доступ к торрентам без ограничений!

Чернобыль / Chernobyl (2019) BDRip [H.264 / 1080p] (сезон 1, серии 1-5 из 5) Novamedia торрент скачать бесплатно

Чернобыль / Chernobyl (2019) BDRip [H.264 / 1080p] (сезон 1, серии 1-5 из 5) NovamediaПроизводство: США, Великобритания/Home Box Office (HBO), Sister Pictures, Sky Television
Жанр: драма, история
Режиссер: Йохан Ренк

Актеры
Джаред Харрис, Стеллан Скарсгард, Эмили Уотсон, Джесси Бакли, Адам Нагаитис, Пол Риттер, Роберт Эммс, Сэм Тротон, Карл Дейвис, Майкл Сока

Описание

История об аварии на Чернобыльской АЭС в 1986 году, эвакуации жителей Припяти и ликвидации последствий. Чернобыль драматизирует истинную историю одной из худших техногенных катастроф в истории и рассказывает о храбрых мужчинах и женщинах, которые пожертвовали собой, чтобы спасти Европу от невообразимой катастрофы.


Релиз от: SeleZen
Продолжительность: ~01: 05: 00 серия
Качество видео: BDRip
Перевод: Многоголосый профессиональный(Novamedia по заказу Amedia)
Субтитры: Русские (Forced, full), английские
Видео: AVC/H.264, 1920x960, ~10.8 Mbps
Аудио #1: AC3, 6 ch, 640 Kbps - русский
Аудио #2: DTS, 6 ch, 1 509 Kbps - английский
General
Unique ID : 173732235410602064024194786151805299399 (0x82B39C87DF8C9EED3ABD14115CE52AC7)
Complete name : F: VideoChernobyl.S01.2019.BDRip.1080p.seleZenChernobyl.S01E01.1.23.45.BDRip.1080p.seleZen.mkv
Format : Matroska
Format version : Version 4
File size : 5.34 GiB
Duration : 58 min 56 s
Overall bit rate : 13.0 Mb/s
Movie name : Chernobyl S01E01 2019 from селезень
Encoded date : UTC 2019-10-04 07: 40: 31
Writing application : mkvmerge v22.0.0 (\'At The End Of The World\') 64-bit
Writing library : libebml v1.3.5 + libmatroska v1.4.8
Video
ID : 1
Format : AVC
Format/Info : Advanced Video Codec
Format profile : [email protected]
Format settings : CABAC/4 Ref Frames
Format settings, CABAC : Yes
Format settings, Reference : 4 frames
Codec ID : V_MPEG4/ISO/AVC
Duration : 58 min 56 s
Bit rate : 10.8 Mb/s
Width : 1 920 pixels
Height : 960 pixels
Display aspect ratio : 2.000
Frame rate mode : Constant
Frame rate : 23.976 (24000/1001) FPS
Color space : YUV
Chroma subsampling : 4: 2: 0
Bit depth : 8 bits
Scan type : Progressive
Bits/(Pixel*Frame) : 0.245
Stream size : 4.46 GiB (83%)
Title : Encoded by seleZen
Writing library : x264 core 148 r2705kMod 3f5ed56
Encoding settings : cabac=1/ref=4/deblock=1: -2: -2/analyse=0x3: 0x113/me=umh/subme=11/psy=1/fade_compensate=0.00/psy_rd=1.00: 0.00/mixed_ref=1/me_range=32/chroma_me=1/trellis=2/8x8dct=1/cqm=0/deadzone=21, 11/fast_pskip=0/chroma_qp_offset=-2/threads=24/lookahead_threads=6/sliced_threads=0/nr=0/decimate=0/interlaced=0/bluray_compat=0/constrained_intra=0/fgo=0/bframes=13/b_pyramid=2/b_adapt=2/b_bias=0/direct=3/weightb=1/open_gop=0/weightp=2/keyint=240/keyint_min=23/scenecut=40/intra_refresh=0/rc_lookahead=50/rc=2pass/mbtree=0/bitrate=10827/ratetol=1.0/qcomp=0.60/qpmin=0/qpmax=51/qpstep=4/cplxblur=20.0/qblur=0.5/vbv_maxrate=50000/vbv_bufsize=62500/nal_hrd=none/filler=0/ip_ratio=1.40/pb_ratio=1.30/aq=3: 0.80
Language : English
Default : Yes
Forced : No
Audio #1
ID : 2
Format : AC-3
Format/Info : Audio Coding 3
Commercial name : Dolby Digital
Codec ID : A_AC3
Duration : 58 min 52 s
Bit rate mode : Constant
Bit rate : 640 kb/s
Channel(s) : 6 channels
Channel layout : L R C LFE Ls Rs
Sampling rate : 48.0 kHz
Frame rate : 31.250 FPS (1536 SPF)
Bit depth : 16 bits
Compression mode : Lossy
Stream size : 270 MiB (5%)
Title : MVO Novamedia
Language : Russian
Service kind : Complete Main
Default : Yes
Forced : Yes
Audio #2
ID : 3
Format : DTS
Format/Info : Digital Theater Systems
Codec ID : A_DTS
Duration : 58 min 56 s
Bit rate mode : Constant
Bit rate : 1 509 kb/s
Channel(s) : 6 channels
Channel layout : C L R Ls Rs LFE
Sampling rate : 48.0 kHz
Frame rate : 93.750 FPS (512 SPF)
Bit depth : 24 bits
Compression mode : Lossy
Stream size : 636 MiB (12%)
Title : Original
Language : English
Default : No
Forced : No
Text #1
ID : 4
Format : UTF-8
Codec ID : S_TEXT/UTF8
Codec ID/Info : UTF-8 Plain Text
Duration : 5 min 33 s
Bit rate : 2 b/s
Count of elements : 2
Stream size : 118 Bytes (0%)
Title : Forced
Language : Russian
Default : Yes
Forced : Yes
Text #2
ID : 5
Format : UTF-8
Codec ID : S_TEXT/UTF8
Codec ID/Info : UTF-8 Plain Text
Duration : 56 min 45 s
Bit rate : 59 b/s
Count of elements : 561
Stream size : 24.7 KiB (0%)
Title : Full
Language : Russian
Default : No
Forced : No
Text #3
ID : 6
Format : UTF-8
Codec ID : S_TEXT/UTF8
Codec ID/Info : UTF-8 Plain Text
Duration : 55 min 26 s
Bit rate : 47 b/s
Count of elements : 615
Stream size : 19.1 KiB (0%)
Title : Full
Language : English
Default : No
Forced : No
Text #4
ID : 7
Format : UTF-8
Codec ID : S_TEXT/UTF8
Codec ID/Info : UTF-8 Plain Text
Duration : 58 min 20 s
Bit rate : 45 b/s
Count of elements : 650
Stream size : 19.4 KiB (0%)
Title : SDH
Language : English
Default : No
Forced : No
Menu
00: 00: 00.000 : en: Chapter 1
00: 00: 38.038 : en: Chapter 2
00: 06: 34.894 : en: Chapter 3
00: 16: 38.163 : en: Chapter 4
00: 26: 31.214 : en: Chapter 5
00: 35: 36.676 : en: Chapter 6
00: 47: 38.438 : en: Chapter 7
00: 56: 16.414 : en: Chapter 8

Скриншоты для ознакомления



Все одноименные релизы в Клубе
Время раздачи: 24/7 (мультитрекерная раздача)

Другие торренты по теме:

  • Чернобыль / Chernobyl (2019) WEB-DLRip (сезон 1, серии 1-2 из 5) Новамедиа (Обновляемая)
  • Чернобыль / Chernobyl (2019) WEB-DL [H.264 / 1080p-LQ] (сезон 1, серии 1-2 из 5) Новамедиа (Обновляемая)
  • Чернобыль / Chernobyl (2019) WEB-DL [H.264 / 720p-LQ] (сезон 1, серии 1-2 из 5) Новамедиа (Обновляемая)
  • Чернобыль / Chernobyl (2019) BDRemux [H.264 / 1080i] (сезон 1, серии 1-5 из 5) Novamedia [GBR Transfer]
  • Чернобыль / Chernobyl (2019) WEB-DLRip [H.265 / 720p-LQ] (сезон 1, серии 1-5 из 5) Novamedia
  • Чернобыль / Chernobyl (2019) 2xDVD9 (сезон 1, серии 1-5 из 5) Novamedia, Юрий Сербин
  • Чернобыль / Chernobyl (2019) BDRip [H.264 / 720p-LQ] (сезон 1, серии 1-5 из 5) Novamedia [hand made cutted]
  • Чернобыль: 30 лет спустя / Chernobyl 30 Years On: Nuclear Heritage (2015) WEB-DLRip [H.264 / 720p]

  • Посетители, находящиеся в группе Гости, не могут оставлять комментарии в данной новости.