Подписывайся на наш канал в Telegram https://t.me/torrentok и получи доступ к торрентам без ограничений!

Чернобыль / Chernobyl (2019) BDRip [H.264 / 720p-LQ] (сезон 1, серии 1-5 из 5) Novamedia [hand made cutted] торрент скачать бесплатно

Чернобыль / Chernobyl (2019) BDRip [H.264 / 720p-LQ] (сезон 1, серии 1-5 из 5) Novamedia [hand made cutted]Производство: США, Великобритания/Home Box Office (HBO), Sister Pictures, Sky Television
Жанр: Драма, История
Режиссер: Йохан Ренк

Актеры
Джаред Харрис, Стеллан Скарсгард, Эмили Уотсон, Джесси Бакли, Адам Нагаитис, Пол Риттер, Роберт Эммс, Сэм Тротон, Карл Дейвис, Майкл Сока

Описание

26 апреля 1986 года в 1: 23: 45 во время проведения эксперимента по безопасности на Чернобыльской АЭС происходит взрыв реактора и пожар. Поднятые по тревоге пожарные без спецзащиты прибывают на место аварии, не подозревая, что оказались в эпицентре крупнейшей в истории человечества техногенной катастрофы. Руководство ЧАЭС уверяет Кремль, что ситуация под контролем, и радиационный фон в норме, но по настоянию академика Легасова его вместе с зампредседателя Совета Министров Борисом Щербиной отправляют разобраться в происходящем на месте.


Релиз от: SergeyAms
Продолжительность: 04: 55: 37
Качество видео: BDRip
Перевод: Многоголосый профессиональный (студияNovamedia по заказу Amedia)
Субтитры: Русские
Видео: AVC/H.264, 1280x640, ~2500 Mbps
Аудио: AC3, 6 ch, 448 Kbps - Русский
Unique ID : 180836474509339208194465409414765605601 (0x880BD68FA7952E54B01F1BB75101F2E1)
Complete name : D: TempNNMЧернобыль.2019.720p.mkv
Format : Matroska
Format version : Version 4/Version 2
File size : 6.28 GiB
Duration : 4h 55mn
Overall bit rate : 3 043 Kbps
Encoded date : UTC 2020-08-21 15: 51: 10
Writing application : mkvmerge v9.8.0 (\'Kuglblids\') 64bit
Writing library : Lavf58.29.100
Video
ID : 1
Format : AVC
Format/Info : Advanced Video Codec
Format profile : [email protected]
Format settings, CABAC : Yes
Format settings, ReFrames : 9 frames
Codec ID : V_MPEG4/ISO/AVC
Duration : 4h 55mn
Bit rate : 2 500 Kbps
Width : 1 280 pixels
Height : 640 pixels
Display aspect ratio : 2.000
Frame rate mode : Constant
Frame rate : 25.000 fps
Color space : YUV
Chroma subsampling : 4: 2: 0
Bit depth : 8 bits
Scan type : MBAFF
Bits/(Pixel*Frame) : 0.122
Stream size : 5.23 GiB (83%)
Writing library : x264 core 157 r2958 57baac4
Encoding settings : cabac=1/ref=9/deblock=1: -2: -2/analyse=0x3: 0x133/me=umh/subme=11/psy=1/psy_rd=1.05: 0.10/mixed_ref=1/me_range=48/chroma_me=1/trellis=2/8x8dct=1/cqm=0/deadzone=21, 11/fast_pskip=0/chroma_qp_offset=-3/threads=13/lookahead_threads=3/sliced_threads=0/nr=0/decimate=0/interlaced=tff/bluray_compat=0/constrained_intra=0/bframes=10/b_pyramid=2/b_adapt=2/b_bias=0/direct=1/weightb=1/open_gop=0/weightp=0/keyint=250/keyint_min=25/scenecut=40/intra_refresh=0/rc=2pass/mbtree=0/bitrate=2500/ratetol=1.0/qcomp=0.70/qpmin=3/qpmax=69/qpstep=4/cplxblur=20.0/qblur=0.5/ip_ratio=1.40/pb_ratio=1.30/aq=2: 1.00
Language : English
Default : Yes
Forced : No
Audio
ID : 2
Format : AC-3
Format/Info : Audio Coding 3
Mode extension : CM (complete main)
Format settings, Endianness : Big
Codec ID : A_AC3
Duration : 4h 55mn
Bit rate mode : Constant
Bit rate : 448 Kbps
Channel(s) : 6 channels
Channel positions : Front: L C R, Side: L R, LFE
Sampling rate : 48.0 KHz
Bit depth : 16 bits
Compression mode : Lossy
Stream size : 947 MiB (15%)
Title : MVO - Novamedia (по заказу Amedia)
Language : Russian
Default : Yes
Forced : No
Text
ID : 3
Format : UTF-8
Codec ID : S_TEXT/UTF8
Codec ID/Info : UTF-8 Plain Text
Language : Russian
Default : Yes
Forced : No

Другие торренты по теме:

  • Чернобыль / Chernobyl (2019) WEB-DLRip (сезон 1, серии 1-2 из 5) Новамедиа (Обновляемая)
  • Чернобыль / Chernobyl (2019) WEB-DL [H.264 / 1080p-LQ] (сезон 1, серии 1-2 из 5) Новамедиа (Обновляемая)
  • Чернобыль / Chernobyl (2019) WEB-DL [H.264 / 720p-LQ] (сезон 1, серии 1-2 из 5) Новамедиа (Обновляемая)
  • Чернобыль / Chernobyl (2019) BDRemux [H.264 / 1080i] (сезон 1, серии 1-5 из 5) Novamedia [GBR Transfer]
  • Чернобыль / Chernobyl (2019) WEB-DLRip [H.265 / 720p-LQ] (сезон 1, серии 1-5 из 5) Novamedia
  • Чернобыль / Chernobyl (2019) 2xDVD9 (сезон 1, серии 1-5 из 5) Novamedia, Юрий Сербин
  • Чернобыль / Chernobyl (2019) BDRip [H.264 / 1080p] (сезон 1, серии 1-5 из 5) Novamedia
  • Чернобыль: 30 лет спустя / Chernobyl 30 Years On: Nuclear Heritage (2015) WEB-DLRip [H.264 / 720p]

  • Посетители, находящиеся в группе Гости, не могут оставлять комментарии в данной новости.