Подписывайся на наш канал в Telegram https://t.me/torrentok и получи доступ к торрентам без ограничений!

Биохакеры / Biohackers (2020) WEBRip (сезон 1, серии 1 из 6) ViruseProject (обновляемая) [AD] торрент скачать бесплатно

Биохакеры / Biohackers (2020) WEBRip (сезон 1, серии 1 из 6) ViruseProject (обновляемая) [AD]Производство: Германия
Жанр: фантастика, триллер, драма
Режиссер: Кристиан Диттер

Актеры
Луна Ведлер, Каро Культ, Элеанор Дэниэл, Бенно Фюрман и др.

Описание

Одаренная студентка биофака Мия знакомится с преподавательницей Лоренц и её подопечными. Они проводят странноватые и, вероятно, не вполне законные эксперименты – заставляют мышь излучать зеленый свет в темноте, а растения у них превращаются в музыкальные инструменты. Мия интересует лабораторией не просто так – девушка подозревает, что Лоренц причастна к гибели её родственника.


Дата мировой премьеры: 20 августа 2020
Релиз от: ViruseProject
Продолжительность: ~00: 40: 00 серия
Качество видео: WEBRip
Перевод: Двуголосый профессиональный (ViruseProject)
Субтитры: русские
Реклама: присутствуют видео, аудио вставки рекламы
Видео: XviD, 720x400 (16: 9), ~1800 Kbps
Аудио 1: MP3, 2 ch, 128 Kbps - русский
Аудио 2: MP3, 2 ch, 128 Kbps - немецкий
Общее
Полное имя : F: ОЗВУЧКА888-ЗАЛИВ-888Biohackers.S01.ViruseProjectBiohackers.S01.400p.ViruseProjectBiohackers.S01E01.400p.WEBRip.ViruseProject.avi
Формат : AVI
Формат/Информация : Audio Video Interleave
Размер файла : 654 Мбайт
Продолжительность : 44 м. 18 с.
Режим общего битрейта : Переменный
Общий поток : 2 065 Кбит/сек
Программа кодирования : VirtualDubMod 1.5.10.2 (build 2540/release)
Библиотека кодирования : VirtualDubMod build 2540/release
Видео
Идентификатор : 0
Формат : MPEG-4 Visual
Профиль формата : Advanced [email protected]
Настройки формата : BVOP1
Параметр BVOP формата : 1
Параметр QPel формата : Нет
Параметр GMC формата : Без точки перехода
Параметр матрицы формата : Default (MPEG)
Идентификатор кодека : XVID
Идентификатор кодека/Подсказка : XviD
Продолжительность : 44 м. 18 с.
Битрейт : 1 795 Кбит/сек
Ширина : 720 пикселей
Высота : 400 пикселей
Соотношение сторон : 16: 9
Частота кадров : 24, 000 кадра/сек
Цветовое пространство : YUV
Субдискретизация насыщенности : 4: 2: 0
Битовая глубина : 8 бит
Тип развёртки : Прогрессивная
Метод сжатия : С потерями
Бит/(Пиксели*Кадры) : 0.260
Размер потока : 569 Мбайт (87%)
Библиотека кодирования : XviD 67
Аудио #1
Идентификатор : 1
Формат : MPEG Audio
Версия формата : Version 1
Профиль формата : Layer 3
Настройки формата : Joint stereo/MS Stereo
Идентификатор кодека : 55
Идентификатор кодека/Подсказка : MP3
Продолжительность : 44 м. 18 с.
Вид битрейта : Переменный
Битрейт : 128 Кбит/сек
Каналы : 2 канала
Частота : 48, 0 КГц
Частота кадров : 41, 667 кадра/сек (1152 SPF)
Метод сжатия : С потерями
Размер потока : 40, 6 Мбайт (6%)
Выравнивание : Соединение по промежуткам
Продолжительность промежутка : 42 мс. (1, 00 видеокадр)
Время предзагрузки промежутка : 504 мс.
Аудио #2
Идентификатор : 2
Формат : MPEG Audio
Версия формата : Version 1
Профиль формата : Layer 3
Настройки формата : Joint stereo/MS Stereo
Идентификатор кодека : 55
Идентификатор кодека/Подсказка : MP3
Продолжительность : 44 м. 18 с.
Вид битрейта : Постоянный
Битрейт : 128 Кбит/сек
Каналы : 2 канала
Частота : 48, 0 КГц
Метод сжатия : С потерями
Размер потока : 40, 6 Мбайт (6%)
Выравнивание : Разделение по промежуткам
Продолжительность промежутка : 42 мс. (1, 00 видеокадр)
Время предзагрузки промежутка : 500 мс.
Библиотека кодирования : LAME3.100

Скриншоты для ознакомления



Все одноименные релизы в Клубе
Время раздачи: с 10: 00 до 24: 00 (до появления первых 3-5 скачавших)

Другие торренты по теме:

  • Биохакеры / Biohackers (2020) WEBRip [H.264 / 1080p-LQ](сезон 1, серии 1 из 6) ViruseProject (обновляемая) [AD]

  • Посетители, находящиеся в группе Гости, не могут оставлять комментарии в данной новости.