Подписывайся на наш канал в Telegram https://t.me/torrentok и получи доступ к торрентам без ограничений!

Час истины / Hour of Lead (2020) WEB-DLRip торрент скачать бесплатно

Час истины / Hour of Lead (2020) WEB-DLRipПроизводство: США, Adonais Productions, Benay\'s Birds Animals, Brickell Broadbridge International
Жанр: боевик, триллер, детектив
Режиссер: Питер Фачинелли
Продюсер: Джефф Эллиотт, Брэндон Менчен, Билл Бромили

Актеры
Энн Хеч, Томас Джейн, Джейсон Патрик, Алекс Хейдон, Питер Фачинелли, Алексей Арчер, Кристофер Венте, Джон Д. Хикман, Митчелл Л. Джонсон, Кейкей Хейм

Описание

У супружеской пары, остановившейся в кемпинге на берегу реки, бесследно пропадает дочь. Полиция не в силах отыскать девочку, но муж с женой не остановятся ни перед чем, чтобы найти своего ребенка. Однако никто не догадывается, что за этим исчезновением скрывается страшная правда.


Дата мировой премьеры: 28 февраля 2020
Дата российской премьеры: 21 августа 2020
Продолжительность: 01: 54: 41
Качество видео: WEB-DLRip
Перевод: Дублированный (iTunes)
Субтитры: Отсутствуют
Видео: Xvid, 720x304, ~1934 Kbps
Аудио 1: AC3, 6 ch, 384 Kbps - Русский (DUB)
Аудио 2: AC3, 6 ch, 384 Kbps - Английский
General
Complete name : E: ФильмыHour of Lead.2020.WEB-DLRip.avi
Format : AVI
Format/Info : Audio Video Interleave
Format profile : OpenDML
File size : 2.18 GiB
Duration : 1 h 54 min
Overall bit rate : 2 720 kb/s
Writing application : VirtualDubMod 1.5.10.2 (build 2540/release)
Writing library : VirtualDubMod build 2540/release
Video
ID : 0
Format : MPEG-4 Visual
Format profile : Advanced [email protected]
Format settings : BVOP2
Format settings, BVOP : 2
Format settings, QPel : No
Format settings, GMC : No warppoints
Format settings, Matrix : Default (MPEG)
Codec ID : XVID
Codec ID/Hint : XviD
Duration : 1 h 54 min
Bit rate : 1 934 kb/s
Width : 720 pixels
Height : 304 pixels
Display aspect ratio : 2.35: 1
Frame rate : 24.000 FPS
Color space : YUV
Chroma subsampling : 4: 2: 0
Bit depth : 8 bits
Scan type : Progressive
Compression mode : Lossy
Bits/(Pixel*Frame) : 0.368
Stream size : 1.55 GiB (71%)
Writing library : XviD 1.2.1 (UTC 2008-12-04)
Audio #1
ID : 1
Format : AC-3
Format/Info : Audio Coding 3
Commercial name : Dolby Digital
Codec ID : 2000
Duration : 1 h 54 min
Bit rate mode : Constant
Bit rate : 384 kb/s
Channel(s) : 6 channels
Channel layout : L R C LFE Ls Rs
Sampling rate : 48.0 kHz
Frame rate : 31.250 FPS (1536 SPF)
Compression mode : Lossy
Stream size : 315 MiB (14%)
Alignment : Split across interleaves
Interleave, duration : 42 ms (1.00 video frame)
Interleave, preload duratio : 500 ms
Service kind : Complete Main
Audio #2
ID : 2
Format : AC-3
Format/Info : Audio Coding 3
Commercial name : Dolby Digital
Codec ID : 2000
Duration : 1 h 54 min
Bit rate mode : Constant
Bit rate : 384 kb/s
Channel(s) : 6 channels
Channel layout : L R C LFE Ls Rs
Sampling rate : 48.0 kHz
Frame rate : 31.250 FPS (1536 SPF)
Compression mode : Lossy
Stream size : 315 MiB (14%)
Alignment : Split across interleaves
Interleave, duration : 42 ms (1.00 video frame)
Interleave, preload duratio : 500 ms
Service kind : Complete Main

Скриншоты для ознакомления



Все одноименные релизы в Клубе
Время раздачи: c 7: 00 до 23: 00 МСК (до появления первых 3-5 скачавших)

Другие торренты по теме:

  • Час истины / Hour of Lead (2020) WEB-DL [H.264 / 1080p-LQ]
  • Час истины / Hour of Lead / The Vanished (2020) WEB-DLRip [H.264]

  • Посетители, находящиеся в группе Гости, не могут оставлять комментарии в данной новости.