Подписывайся на наш канал в Telegram https://t.me/torrentok и получи доступ к торрентам без ограничений!

Бэтмен и Робин / Batman & Robin (1997) BDRip [H.265 / 1080p] [10-bit] [Remastered] торрент скачать бесплатно

Бэтмен и Робин / Batman & Robin (1997) BDRip [H.265 / 1080p] [10-bit] [Remastered]Производство: США, Великобритания/Warner Bros.
Жанр: фантастика, боевик
Режиссер: Джоэл Шумахер
Продюсер: Питер МакГрегор-Скотт, Митчелл Е. Дотерайв, Уильям М. Элвин

Актеры
Арнольд Шварценеггер, Джордж Клуни, Крис О’Доннелл, Ума Турман, Алисия Сильверстоун, Майкл Гоф, Пэт Хингл, Джон Гловер, Эль Макферсон, Вивика А. Фокс

Описание

Над Готэмом вновь нависла угроза: злодей-морозилка Мистер Фриз и психованная любительница растений по кличке Ядовитый Плющ решают уничтожить город. Единственные, кто могут остановить злодеев — Бэтмен и Робин, однако у этих супергероев возникают разногласия…


Возраст: 12+ (зрителям, достигшим 12 лет)
Рейтинг MPAA: PG-13 (детям до 13 лет просмотр нежелателен)
Релиз от: OldGamer
Продолжительность: 02: 04: 52
Качество видео: BDRip
Перевод: дублированный, профессиональный многоголосый, профессиональный двухголосый, авторский одноголосый, любительский одноголосый
Субтитры: Русские полные (SRT), English full (SRT, SDH)
Видео: HEVC/H.265, 1920x1040, ~9309 Kbps
Аудио1: AC3, 6 ch, 384 Kbps - Русский, Дублированный (Мост Видео)
Аудио2: AC3, 2 ch, 192 Kbps - Русский, Дублированный (Варус Видео)
Аудио3: AC3, 2 ch, 192 Kbps - Русский, Многоголосый (РТР/Россия)
Аудио4: AC3, 2 ch, 192 Kbps - Русский, Двухголосый (SDI Media)
Аудио5: AC3, 6 ch, 640 Kbps - Русский, Авторский (Андрей Гаврилов)
Аудио6: AC3, 6 ch, 640 Kbps - Русский, Авторский (Юрий Живов)
Аудио7: AC3, 2 ch, 192 Kbps - Русский, Авторский (Сергей Визгунов)
Аудио8: AC3, 2 ch, 192 Kbps - Русский, Авторский (Николай Антонов)
Аудио9: AC3, 2 ch, 192 Kbps - Русский, Одноголосый (funny)
Аудио10: AC3, 2 ch, 192 Kbps - Украинский, Многоголосый (ICTV)
Аудио11: AC3, 6 ch, 640 Kbps - English, Original
x265 info: frame I: 759, Avg QP: 18.26 kb/s: 21275.94
x265 info: frame P: 35091, Avg QP: 19.62 kb/s: 15554.42
x265 info: frame B: 143800, Avg QP: 21.54 kb/s: 7720.74
x265 info: Weighted P-Frames: Y: 7.3% UV: 6.4%
x265 info: Weighted B-Frames: Y: 9.0% UV: 7.1%
x265 info: consecutive B-frames: 6.8% 5.4% 8.3% 19.4% 13.0% 34.2% 4.8% 3.5% 1.4% 0.8% 0.8% 1.2% 0.2% 0.1% 0.1%
x265 info: encoded 179650 frames in 250801.59s (0.72 fps), 9308.16 kb/s, Avg QP: 21.15
Формат : Matroska
Версия формата : Version 4
Размер файла : 11, 3 Гбайт
Продолжительность : 2 ч. 4 м.
Общий поток : 13, 0 Мбит/сек
Название фильма : 04.Бэтмен.и.Робин.Batman.and.Robin.1997.BDRip-HEVC.1080p
Дата кодирования : UTC 2020-08-20 05: 34: 32
Программа кодирования : mkvmerge v49.0.0 (\'Sick Of Losing Soulmates\') 64-bit
Библиотека кодирования : libebml v1.4.0 + libmatroska v1.6.1
Видео
Идентификатор : 1
Формат : HEVC
Формат/Информация : High Efficiency Video Coding
Профиль формата : Main [email protected]@Main
Идентификатор кодека : V_MPEGH/ISO/HEVC
Продолжительность : 2 ч. 4 м.
Битрейт : 9 309 Кбит/сек
Ширина : 1 920 пикселей
Высота : 1 040 пикселей
Соотношение сторон : 1, 85: 1
Режим частоты кадров : Постоянный
Частота кадров : 23, 976 (24000/1001) кадра/сек
Цветовое пространство : YUV
Субдискретизация насыщенности : 4: 2: 0
Битовая глубина : 10 бит
Бит/(Пиксели*Кадры) : 0.194
Размер потока : 8, 12 Гбайт (72%)
Заголовок : Batman and Robin/Rip by OldGamer
Библиотека кодирования : x265 3.4+1-7b120308dc64: WindowsGCC 10.1.064 bit 10bit
Настройки программы : cpuid=1111039/frame-threads=3/numa-pools=12/wpp/no-pmode/no-pme/no-psnr/no-ssim/log-level=2/input-csp=1/input-res=1920x1040/interlace=0/total-frames=179650/level-idc=0/high-tier=1/uhd-bd=0/ref=5/no-allow-non-conformance/no-repeat-t_heads/annexb/no-aud/no-hrd/info/hash=0/no-temporal-layers/open-gop/min-keyint=23/keyint=240/gop-lookahead=0/bframes=14/b-adapt=2/b-pyramid/bframe-bias=0/rc-lookahead=60/lookahead-slices=0/scenecut=40/hist-scenecut=0/radl=0/no-splice/no-intra-refresh/ctu=64/min-cu-size=8/rect/amp/max-tu-size=32/tu-inter-depth=4/tu-intra-depth=4/limit-tu=1/rdoq-level=2/dynamic-rd=0.00/no-ssim-rd/signhide/no-tskip/nr-intra=0/nr-inter=0/no-constrained-intra/no-strong-intra-smoothing/max-merge=5/limit-refs=3/no-limit-modes/me=3/subme=7/merange=57/temporal-mvp/no-frame-dup/no-hme/weightp/weightb/no-analyze-src-pics/deblock=-3: -3/no-sao/no-sao-non-deblock/rd=6/selective-sao=0/no-early-skip/rskip/no-fast-intra/no-tskip-fast/no-cu-lossless/b-intra/no-splitrd-skip/rdpenalty=0/psy-rd=2.00/psy-rdoq=1.00/no-rd-refine/no-lossless/cbqpoffs=0/crqpoffs=0/rc=crf/crf=19.7/qcomp=0.60/qpstep=4/stats-write=0/stats-read=0/ipratio=1.40/pbratio=1.30/aq-mode=4/aq-strength=1.00/no-cutree/zone-count=1/zones: /start-frame=172159/end-frame=179628/qp=36/no-strict-cbr/qg-size=32/no-rc-grain/qpmax=69/qpmin=0/no-const-vbv/sar=1/overscan=0/videoformat=5/range=0/colorprim=2/transfer=2/colormatrix=2/chromaloc=0/display-window=0/cll=0, 0/min-luma=0/max-luma=1023/log2-max-poc-lsb=8/vui-timing-info/vui-hrd-info/slices=1/no-opt-qp-pps/no-opt-ref-list-length-pps/no-multi-pass-opt-rps/scenecut-bias=0.00/hist-threshold=0.01/no-opt-cu-delta-qp/no-aq-motion/no-hdr10/no-hdr10-opt/no-dhdr10-opt/no-idr-recovery-sei/analysis-reuse-level=0/analysis-save-reuse-level=0/analysis-load-reuse-level=0/scale-factor=0/refine-intra=0/refine-inter=0/refine-mv=1/refine-ctu-distortion=0/no-limit-sao/ctu-info=0/no-lowpass-dct/refine-analysis-type=0/copy-pic=1/max-ausize-factor=1.0/no-dynamic-refine/no-single-sei/no-hevc-aq/no-svt/no-field/qp-adaptation-range=1.00/no-scenecut-aware-qpconformance-window-offsets/right=0/bottom=0/decoder-max-rate=0
Язык : English
Default : Да
Forced : Нет
Аудио #1
Идентификатор : 2
Формат : AC-3
Формат/Информация : Audio Coding 3
Коммерческое название : Dolby Digital
Идентификатор кодека : A_AC3
Продолжительность : 2 ч. 4 м.
Вид битрейта : Постоянный
Битрейт : 384 Кбит/сек
Каналы : 6 каналов
Channel layout : L R C LFE Ls Rs
Частота : 48, 0 КГц
Частота кадров : 31, 250 кадров/сек (1536 SPF)
Метод сжатия : С потерями
Размер потока : 343 Мбайт (3%)
Заголовок : Dub (Мост Видео)
Язык : Russian
Service kind : Complete Main
Default : Да
Forced : Нет
Аудио #2
Идентификатор : 3
Формат : AC-3
Формат/Информация : Audio Coding 3
Коммерческое название : Dolby Digital
Идентификатор кодека : A_AC3
Продолжительность : 2 ч. 4 м.
Вид битрейта : Постоянный
Битрейт : 192 Кбит/сек
Каналы : 2 канала
Channel layout : L R
Частота : 48, 0 КГц
Частота кадров : 31, 250 кадров/сек (1536 SPF)
Метод сжатия : С потерями
Размер потока : 172 Мбайт (1%)
Заголовок : Dub (Варус Видео)
Язык : Russian
Service kind : Complete Main
Default : Нет
Forced : Нет
Аудио #3
Идентификатор : 4
Формат : AC-3
Формат/Информация : Audio Coding 3
Коммерческое название : Dolby Digital
Идентификатор кодека : A_AC3
Продолжительность : 2 ч. 4 м.
Вид битрейта : Постоянный
Битрейт : 192 Кбит/сек
Каналы : 2 канала
Channel layout : L R
Частота : 48, 0 КГц
Частота кадров : 31, 250 кадров/сек (1536 SPF)
Метод сжатия : С потерями
Размер потока : 172 Мбайт (1%)
Заголовок : MVO (РТР/Россия)
Язык : Russian
Service kind : Complete Main
Default : Нет
Forced : Нет
Аудио #4
Идентификатор : 5
Формат : AC-3
Формат/Информация : Audio Coding 3
Коммерческое название : Dolby Digital
Идентификатор кодека : A_AC3
Продолжительность : 2 ч. 4 м.
Вид битрейта : Постоянный
Битрейт : 192 Кбит/сек
Каналы : 2 канала
Channel layout : L R
Частота : 48, 0 КГц
Частота кадров : 31, 250 кадров/сек (1536 SPF)
Метод сжатия : С потерями
Размер потока : 172 Мбайт (1%)
Заголовок : DVO (SDI Media)
Язык : Russian
Service kind : Complete Main
Default : Нет
Forced : Нет
Аудио #5
Идентификатор : 6
Формат : AC-3
Формат/Информация : Audio Coding 3
Коммерческое название : Dolby Digital
Идентификатор кодека : A_AC3
Продолжительность : 2 ч. 4 м.
Вид битрейта : Постоянный
Битрейт : 640 Кбит/сек
Каналы : 6 каналов
Channel layout : L R C LFE Ls Rs
Частота : 48, 0 КГц
Частота кадров : 31, 250 кадров/сек (1536 SPF)
Метод сжатия : С потерями
Размер потока : 572 Мбайт (5%)
Заголовок : AVO (Андрей Гаврилов)
Язык : Russian
Service kind : Complete Main
Default : Нет
Forced : Нет
Аудио #6
Идентификатор : 7
Формат : AC-3
Формат/Информация : Audio Coding 3
Коммерческое название : Dolby Digital
Идентификатор кодека : A_AC3
Продолжительность : 2 ч. 4 м.
Вид битрейта : Постоянный
Битрейт : 640 Кбит/сек
Каналы : 6 каналов
Channel layout : L R C LFE Ls Rs
Частота : 48, 0 КГц
Частота кадров : 31, 250 кадров/сек (1536 SPF)
Метод сжатия : С потерями
Размер потока : 572 Мбайт (5%)
Заголовок : AVO (Юрий Живов)
Язык : Russian
Service kind : Complete Main
Default : Нет
Forced : Нет
Аудио #7
Идентификатор : 8
Формат : AC-3
Формат/Информация : Audio Coding 3
Коммерческое название : Dolby Digital
Идентификатор кодека : A_AC3
Продолжительность : 2 ч. 4 м.
Вид битрейта : Постоянный
Битрейт : 192 Кбит/сек
Каналы : 2 канала
Channel layout : L R
Частота : 48, 0 КГц
Частота кадров : 31, 250 кадров/сек (1536 SPF)
Метод сжатия : С потерями
Размер потока : 172 Мбайт (1%)
Заголовок : AVO (Сергей Визгунов)
Язык : Russian
Service kind : Complete Main
Default : Нет
Forced : Нет
Аудио #8
Идентификатор : 9
Формат : AC-3
Формат/Информация : Audio Coding 3
Коммерческое название : Dolby Digital
Идентификатор кодека : A_AC3
Продолжительность : 2 ч. 4 м.
Вид битрейта : Постоянный
Битрейт : 192 Кбит/сек
Каналы : 2 канала
Channel layout : L R
Частота : 48, 0 КГц
Частота кадров : 31, 250 кадров/сек (1536 SPF)
Метод сжатия : С потерями
Размер потока : 172 Мбайт (1%)
Заголовок : AVO (Николай Антонов)
Язык : Russian
Service kind : Complete Main
Default : Нет
Forced : Нет
Аудио #9
Идентификатор : 10
Формат : AC-3
Формат/Информация : Audio Coding 3
Коммерческое название : Dolby Digital
Идентификатор кодека : A_AC3
Продолжительность : 2 ч. 4 м.
Вид битрейта : Постоянный
Битрейт : 192 Кбит/сек
Каналы : 2 канала
Channel layout : L R
Частота : 48, 0 КГц
Частота кадров : 31, 250 кадров/сек (1536 SPF)
Метод сжатия : С потерями
Размер потока : 172 Мбайт (1%)
Заголовок : VO (funny)
Язык : Russian
Service kind : Complete Main
Default : Нет
Forced : Нет
Аудио #10
Идентификатор : 11
Формат : AC-3
Формат/Информация : Audio Coding 3
Коммерческое название : Dolby Digital
Идентификатор кодека : A_AC3
Продолжительность : 2 ч. 4 м.
Вид битрейта : Постоянный
Битрейт : 192 Кбит/сек
Каналы : 2 канала
Channel layout : L R
Частота : 48, 0 КГц
Частота кадров : 31, 250 кадров/сек (1536 SPF)
Метод сжатия : С потерями
Размер потока : 172 Мбайт (1%)
Заголовок : MVO (ICTV)
Язык : Ukrainian
Service kind : Complete Main
Default : Нет
Forced : Нет
Аудио #11
Идентификатор : 12
Формат : AC-3
Формат/Информация : Audio Coding 3
Коммерческое название : Dolby Digital
Идентификатор кодека : A_AC3
Продолжительность : 2 ч. 4 м.
Вид битрейта : Постоянный
Битрейт : 640 Кбит/сек
Каналы : 6 каналов
Channel layout : L R C LFE Ls Rs
Частота : 48, 0 КГц
Частота кадров : 31, 250 кадров/сек (1536 SPF)
Метод сжатия : С потерями
Размер потока : 572 Мбайт (5%)
Заголовок : Original
Язык : English
Service kind : Complete Main
Default : Нет
Forced : Нет
Текст #1
Идентификатор : 13
Формат : UTF-8
Идентификатор кодека : S_TEXT/UTF8
Идентификатор кодека/Информация : UTF-8 Plain Text
Продолжительность : 2 ч. 3 м.
Битрейт : 57 бит/сек
Count of elements : 1192
Размер потока : 52, 3 Кбайт (0%)
Заголовок : Full
Язык : Russian
Default : Нет
Forced : Нет
Текст #2
Идентификатор : 14
Формат : UTF-8
Идентификатор кодека : S_TEXT/UTF8
Идентификатор кодека/Информация : UTF-8 Plain Text
Продолжительность : 1 ч. 57 м.
Битрейт : 39 бит/сек
Count of elements : 1163
Размер потока : 33, 5 Кбайт (0%)
Заголовок : Full
Язык : English
Default : Нет
Forced : Нет
Текст #3
Идентификатор : 15
Формат : UTF-8
Идентификатор кодека : S_TEXT/UTF8
Идентификатор кодека/Информация : UTF-8 Plain Text
Продолжительность : 1 ч. 57 м.
Битрейт : 42 бит/сек
Count of elements : 1281
Размер потока : 36, 4 Кбайт (0%)
Заголовок : SDH
Язык : English
Default : Нет
Forced : Нет
Меню
00: 00: 00.000 : en: Hero Preparations
00: 03: 51.229 : en: Museum Mayhem
00: 09: 12.551 : en: Blast Off!
00: 13: 25.971 : en: Frozen Stiff
00: 15: 11.744 : en: Bane is Born
00: 19: 09.480 : en: Victim of Venom
00: 21: 01.093 : en: Nature of Family
00: 24: 03.607 : en: She\'s Poison Now
00: 26: 35.719 : en: Mr Freez\'s Plans
00: 29: 13.250 : en: New Family Arrives
00: 31: 41.732 : en: Barb\'s Nightlfe
00: 33: 59.369 : en: Hers for Greening
00: 38: 42.152 : en: Bait for Cold Fish
00: 39: 54.556 : en: To The Highest Bidder
00: 45: 32.228 : en: Cool Party Thrasher
00: 48: 47.925 : en: Chilling Chase
00: 50: 53.550 : en: Matters of Trust
00: 54: 27.931 : en: Freeze on Ice
00: 56: 23.545 : en: Renovations
00: 59: 29.731 : en: Thinking Things Over
01: 01: 05.161 : en: Fast Company
01: 06: 00.956 : en: Secets Revealed
01: 07: 47.563 : en: Escape from Arkham
01: 12: 16.832 : en: At Freez\'s Lair
01: 16: 01.055 : en: Beauty and the Beast
01: 20: 16.478 : en: Adam and Evil
01: 22: 59.807 : en: Partners Part
01: 25: 40.466 : en: Seeing the Light
01: 28: 47.488 : en: Access Allowed
01: 32: 02.182 : en: Trust Me Now?
01: 33: 25.265 : en: Nutball Strikes
01: 35: 15.876 : en: The Lady Suits Up
01: 36: 25.279 : en: Invading Ivy\'s garden
01: 41: 21.240 : en: Ica Malice
01: 44: 21.421 : en: Storming the Observatory
01: 48: 31.505 : en: Telescopic Frenzy
01: 49: 53.920 : en: Freeze in Hell!
01: 51: 43.697 : en: The Big Thaw
01: 53: 33.640 : en: Helping Hand
01: 56: 29.314 : en: Cellmates
01: 57: 25.537 : en: Partners Three
01: 59: 40.506 : en: End Credits

Скриншоты для ознакомления



Все одноименные релизы в Клубе
Время раздачи: 24/7 (круглосуточно) (до появления первых 3-5 скачавших)

Другие торренты по теме:

  • Бэтмен и Робин / Batman & Robin (1997) BDRip [1080p] скачать через торрент бесплатно
  • Бэтмен и Робин / Batman & Robin (1997) BDRip [H.264]
  • Бэтмен и Робин / Batman & Robin (1997) BDRip [H.265 / 1080p-LQ] [10-bit]
  • Бэтмен и Робин / Batman & Robin (1997) UHD Blu-ray [H.265 / 2160p] [4K, HDR, 10-bit] [EUR]
  • Бэтмен и Робин / Batman & Robin (1997) UHD BDRemux [H.265 / 2160p] [4K, HDR, 10-bit]

  • Посетители, находящиеся в группе Гости, не могут оставлять комментарии в данной новости.