Подписывайся на наш канал в Telegram https://t.me/torrentok и получи доступ к торрентам без ограничений!

Солнце / Solis (2018) BDRip [H.264 / 1080p] [MVO] торрент скачать бесплатно

Солнце / Solis (2018) BDRip [H.264 / 1080p] [MVO]Производство: Великобритания, Goldfinch Studios, Premiere Picture, Strathie Film
Жанр: Фантастика, драма
Режиссер: Carl Strathie
Продюсер: Шарлетт Килби, Алан Лэтэм, Carl Strathie

Актеры
Стивен Огг, Элис Лоу, Сид Феникс, Генри Даутуэйт, Кейт Куган, Шарлетт Килби, Jonathan Calloway

Описание

Очнувшись, Трой Холлоуэй осознает, что находится в шаттле, направляющемся в сторону солнца. Командир Робертс вместе с командой уже мчится ему на помощь, однако Холлоуэй после недавней потери сына не особо жаждет спасения. Тем не менее командир не позволяет ему спокойно ждать смерти и всячески поддерживает его с помощью слабой радиосвязи, полный решимости вытащить Троя из этого ада.


Релиз от: ELEKTRI4KA
Продолжительность: 01: 31: 55
Качество видео: BDRip
Перевод: Многоголосый профессиональный (iTunes)
Субтитры: Английские (srt)
Видео: AVC/H.264, 1920x806, ~11.1 Mbps
Аудио 1: AC3, 6 ch, 384 Kbps - Русский
Аудио 2: DD+ E-AC3, 6 ch, 1023 Kbps - Английский
Complete name: Solis.2018.1080p.BluRay.ELEKTRI4KA.UNIONGANG.mkv
Format: Matroska
Format version: Version 4/Version 2
File size: 8.04 GiB
Duration: 1 h 31 min
Overall bit rate: 12.5 Mb/s
Movie name: .ELEKTRI4KA.UNIONGANG.
Encoded date: UTC 2020-08-20 08: 41: 54
Writing application: mkvmerge v8.3.0 (\'Over the Horizon\') 64bit
Writing library: libebml v1.3.1 + libmatroska v1.4.2
Video
ID: 1
Format: AVC
Format/Info: Advanced Video Codec
Format profile: [email protected]
Format settings, CABAC: Yes
Format settings, Reference frames: 5 frames
Codec ID: V_MPEG4/ISO/AVC
Duration: 1 h 31 min
Bit rate: 11.1 Mb/s
Width: 1 920 pixels
Height: 806 pixels
Display aspect ratio: 2.40: 1
Frame rate mode: Constant
Frame rate: 24.000 FPS
Color space: YUV
Chroma subsampling: 4: 2: 0
Bit depth: 8 bits
Scan type: Progressive
Bits/(Pixel*Frame): 0.299
Stream size: 7.14 GiB (89%)
Writing library: x264 core 157 r2867+150 7e91e0e t_mod_Custom_2 [email protected] X86_64
Encoding settings: cabac=1/ref=5/deblock=1: -3: -3/analyse=0x3: 0x133/me=umh/subme=10/psy=1/fade_compensate=0.00/psy_rd=1.00: 0.00/mixed_ref=1/me_range=32/chroma_me=1/trellis=2/8x8dct=1/cqm=0/deadzone=21, 11/fast_pskip=0/chroma_qp_offset=-2/threads=12/lookahead_threads=3/sliced_threads=0/nr=0/decimate=0/interlaced=0/bluray_compat=0/constrained_intra=0/fgo=0/bframes=16/b_pyramid=2/b_adapt=2/b_bias=0/direct=3/weightb=1/open_gop=0/weightp=2/keyint=250/keyint_min=24/scenecut=40/intra_refresh=0/rc_lookahead=60/rc=crf/mbtree=0/crf=18.2000/qcomp=0.60/qpmin=0: 0: 0/qpmax=69: 69: 69/qpstep=4/vbv_maxrate=62500/vbv_bufsize=78125/crf_max=0.0/nal_hrd=none/filler=0/ip_ratio=1.30/pb_ratio=1.21/aq=3: 0.80/aq-sensitivity=10.00/aq-factor=1.00: 1.00: 1.00/aq2=0/aq3=0/zones=80, 263, crf=16/72100, 72236, crf=16/83258, 84107, crf=16/86308, 86437, crf=17/86599, 87198, crf=17/103304, 104478, crf=15.8/106909, 107194, crf=16/107393, 107698, crf=16/118339, 118496, crf=16.5/120404, 120558, crf=16.5/123257, 123481, crf=16.5/124929, 125413, crf=16.5
Language: English
Default: Yes
Forced: No
Color range: Limited
Matrix coefficients: BT.709
Audio #1
ID: 2
Format: AC-3
Format/Info: Audio Coding 3
Mode extension: CM (complete main)
Format settings, Endianness: Big
Codec ID: A_AC3
Duration: 1 h 31 min
Bit rate mode: Constant
Bit rate: 384 kb/s
Channel(s): 6 channels
Channel positions: Front: L C R, Side: L R, LFE
Sampling rate: 48.0 kHz
Frame rate: 31.250 FPS (1536 spf)
Bit depth: 16 bits
Compression mode: Lossy
Stream size: 252 MiB (3%)
Title: itunes
Language: Russian
Default: Yes
Forced: Yes
Audio #2
ID: 3
Format: E-AC-3
Format/Info: Enhanced Audio Coding 3
Format settings, Endianness: Big
Codec ID: A_EAC3
Duration: 1 h 31 min
Bit rate mode: Constant
Bit rate: 1 023 kb/s
Channel(s): 6 channels
Channel positions: Front: L C R, Side: L R, LFE
Sampling rate: 48.0 kHz
Frame rate: 187.500 FPS (256 spf)
Compression mode: Lossy
Stream size: 673 MiB (8%)
Title: DD+ 5.1
Language: English
Default: No
Forced: No
Text
ID: 4
Format: UTF-8
Codec ID: S_TEXT/UTF8
Codec ID/Info: UTF-8 Plain Text
Duration: 1 h 27 min
Bit rate: 54 b/s
Count of elements: 1047
Stream size: 34.5 KiB (0%)
Title: Srt Eng
Language: English
Default: No
Forced: No
Menu
00: 00: 00.000: : 1
00: 03: 02.625: : 2
00: 07: 34.625: : 3
00: 12: 27.625: : 4
00: 17: 46.833: : 5
00: 23: 37.000: : 6
00: 27: 23.000: : 7
00: 29: 26.875: : 8
00: 34: 53.458: : 9
00: 38: 09.500: : 10
00: 41: 50.458: : 11
00: 45: 39.292: : 12
00: 48: 38.625: : 13
00: 53: 55.125: : 14
01: 00: 34.625: : 15
01: 05: 33.458: : 16
01: 13: 24.208: : 17
01: 18: 52.958: : 18
01: 22: 58.250: : 19
01: 28: 14.625: : 20

Скриншоты для ознакомления



Все одноименные релизы в Клубе
Время раздачи: 24/7 (мультитрекер)

Другие торренты по теме:

  • Солнце / Solis (2018) WEB-DL [H.264 / 1080p-LQ] [MVO]
  • Солнце / Solis (2018) BDRemux [EN / EN Sub]
  • Солнце / Solis (2018) BDRemux [H.264 / 1080p] [MVO]
  • Солнце / Solis (2018) BDRemux [H.264 / 1080p]

  • Посетители, находящиеся в группе Гости, не могут оставлять комментарии в данной новости.