Подписывайся на наш канал в Telegram https://t.me/torrentok и получи доступ к торрентам без ограничений!

Калейдоскоп ужасов 2 / Creepshow 2 (1987) BDRip [H.265 / 1080p] [10-bit] торрент скачать бесплатно

Калейдоскоп ужасов 2 / Creepshow 2 (1987) BDRip [H.265 / 1080p] [10-bit]Производство: США/New World Pictures, Laurel Entertainment Inc.
Жанр: ужасы, фэнтези, комедия
Режиссер: Майкл Горник

Актеры
Доменик Джон, Том Савини, Джордж Кеннеди, Филип Дор, Молтби Наполеон, Тайрон Тонто, Дороти Ламур, Фрэнк Салседо, Холт МакКэллани, Дэвид Холбрук

Описание
Альманах из трех короткометражных фантастически - мистических новелл по рассказам Стивена Кинга. В фильме прекрасно соседствуют ужасы и фантастика, пародия и мистика, кино и анимация. Почитатели жанра оценят ожившие из комиксов страшилки, сделанные все с явной иронией и черным юмором.


Возраст: 18+ (зрителям, достигшим 18 лет. запрещено для детей)
Рейтинг MPAA: R (лицам до 17 лет обязательно присутствие взрослого)
Релиз от: Мичман (HEVC-CLUB)
Продолжительность: 01: 29: 38
Качество видео: BDRip
Перевод: Многоголосый профессиональный, двухголосый, авторский
Субтитры: Русские, английские (SDH)
Видео: HEVC/H.265, 1920x1038, ~13, 0 Мbps
Аудио: AC3, 6 ch, 448 Kbps - Русский, DVO (CP-Digital)
Аудио: AC3, 2 ch, 192 Kbps - Русский, MVO (Варус Видео)
Аудио: AC3, 6 ch, 448 Kbps - Русский, AVO (Визгунов)
Аудио: AC3, 6 ch, 448 Kbps - Русский, AVO (Дольский) (ранний))
Аудио: AC3, 6 ch, 640 Kbps - Английский
==============================
x265 info: frame I: Avg QP: 19.34 kb/s
x265 info: frame P: Avg QP: 20.79 kb/s
x265 info: frame B: Avg QP: 22.55 kb/s
==============================
Общее
Уникальный идентификатор : 32606134200196537026797240464635144114 (0x1887B688A7A0CBEE1187721788ED27B2)
Полное имя : R: Creepshow 2 (1987) BDRip-HEVC 1080p.mkv
Формат : Matroska
Версия формата : Version 4/Version 2
Размер файла : 9, 53 Гбайт
Продолжительность : 1 ч. 29 м.
Общий поток : 15, 2 Мбит/сек
Название фильма : Creepshow 2 (1987)
Дата кодирования : UTC 2020-08-13 11: 57: 41
Программа кодирования : mkvmerge v49.0.0 (\'Sick Of Losing Soulmates\') 64-bit
Библиотека кодирования : libebml v1.4.0 + libmatroska v1.6.1
Обложка : Yes
Attachments : cover
Видео
Идентификатор : 1
Формат : HEVC
Формат/Информация : High Efficiency Video Coding
Профиль формата : [email protected]@High
Идентификатор кодека : V_MPEGH/ISO/HEVC
Продолжительность : 1 ч. 29 м.
Битрейт : 13, 0 Мбит/сек
Ширина : 1920 пикселей
Высота : 1038 пикселей
Соотношение сторон : 1, 85: 1
Режим частоты кадров : Постоянный
Частота кадров : 23, 976 (23976/1000) кадра/сек
Частота кадров в оригинале : 23, 976 (24000/1001) кадра/сек
Цветовое пространство : YUV
Субдискретизация насыщенности : 4: 2: 0
Битовая глубина : 10 бит
Бит/(Пиксели*Кадры) : 0.273
Размер потока : 8, 16 Гбайт (86%)
Библиотека кодирования : x265 3.3+1-g554c887ac: WindowsMSVC 192464 bit 10bit
Настройки программы : cpuid=1111039/frame-threads=3/numa-pools=12/wpp/no-pmode/no-pme/no-psnr/no-ssim/log-level=2/input-csp=1/input-res=1920x1038/interlace=0/total-frames=84918/level-idc=41/high-tier=1/uhd-bd=0/ref=5/no-allow-non-conformance/no-repeat-t_heads/annexb/no-aud/no-hrd/info/hash=0/no-temporal-layers/open-gop/min-keyint=23/keyint=240/gop-lookahead=0/bframes=8/b-adapt=2/b-pyramid/bframe-bias=0/rc-lookahead=60/lookahead-slices=4/scenecut=40/hist-scenecut=0/radl=0/no-splice/no-intra-refresh/ctu=32/min-cu-size=8/rect/amp/max-tu-size=32/tu-inter-depth=4/tu-intra-depth=4/limit-tu=1/rdoq-level=2/dynamic-rd=0.00/no-ssim-rd/signhide/no-tskip/nr-intra=0/nr-inter=0/no-constrained-intra/no-strong-intra-smoothing/max-merge=4/limit-refs=2/limit-modes/me=3/subme=7/merange=57/temporal-mvp/no-frame-dup/no-hme/weightp/weightb/no-analyze-src-pics/deblock=-3: -3/no-sao/no-sao-non-deblock/rd=6/selective-sao=0/no-early-skip/rskip/no-fast-intra/no-tskip-fast/no-cu-lossless/no-b-intra/no-splitrd-skip/rdpenalty=0/psy-rd=2.00/psy-rdoq=1.00/no-rd-refine/no-lossless/cbqpoffs=0/crqpoffs=0/rc=crf/crf=20.0/qcomp=0.65/qpstep=4/stats-write=0/stats-read=0/vbv-maxrate=50000/vbv-bufsize=50000/vbv-init=0.9/crf-max=0.0/crf-min=0.0/ipratio=1.40/pbratio=1.30/aq-mode=1/aq-strength=1.00/no-cutree/zone-count=0/no-strict-cbr/qg-size=32/no-rc-grain/qpmax=69/qpmin=0/no-const-vbv/sar=1/overscan=0/videoformat=5/range=0/colorprim=1/transfer=1/colormatrix=1/chromaloc=0/display-window=0/cll=0, 0/min-luma=0/max-luma=1023/log2-max-poc-lsb=8/vui-timing-info/vui-hrd-info/slices=1/no-opt-qp-pps/no-opt-ref-list-length-pps/no-multi-pass-opt-rps/scenecut-bias=0.05/hist-threshold=0.01/no-opt-cu-delta-qp/no-aq-motion/no-hdr10/no-hdr10-opt/no-dhdr10-opt/no-idr-recovery-sei/analysis-reuse-level=0/analysis-save-reuse-level=0/analysis-load-reuse-level=0/scale-factor=0/refine-intra=0/refine-inter=0/refine-mv=1/refine-ctu-distortion=0/no-limit-sao/ctu-info=0/no-lowpass-dct/refine-analysis-type=0/copy-pic=1/max-ausize-factor=1.0/no-dynamic-refine/no-single-sei/no-hevc-aq/no-svt/no-field/qp-adaptation-range=1.00/no-scenecut-aware-qpconformance-window-offsets/right=0/bottom=0
Default : Да
Forced : Нет
Цветовой диапазон : Limited
Основные цвета : BT.709
Характеристики трансфера : BT.709
Коэффициенты матрицы : BT.709
Аудио #1
Идентификатор : 2
Формат : AC-3
Формат/Информация : Audio Coding 3
Идентификатор кодека : A_AC3
Продолжительность : 1 ч. 29 м.
Вид битрейта : Постоянный
Битрейт : 448 Кбит/сек
Каналы : 6 каналов
Расположение каналов : Front: L C R, Side: L R, LFE
Частота : 48, 0 КГц
Частота кадров : 31, 250 кадров/сек (1536 SPF)
Битовая глубина : 16 бит
Метод сжатия : С потерями
Размер потока : 287 Мбайт (3%)
Заголовок : DVO CP-Digital
Язык : Russian
ServiceKind/String : Complete Main
Default : Да
Forced : Нет
Аудио #2
Идентификатор : 3
Формат : AC-3
Формат/Информация : Audio Coding 3
Идентификатор кодека : A_AC3
Продолжительность : 1 ч. 29 м.
Вид битрейта : Постоянный
Битрейт : 192 Кбит/сек
Каналы : 2 канала
Расположение каналов : Front: L R
Частота : 48, 0 КГц
Частота кадров : 31, 250 кадров/сек (1536 SPF)
Битовая глубина : 16 бит
Метод сжатия : С потерями
Размер потока : 123 Мбайт (1%)
Заголовок : MVO Варус Видео
Язык : Russian
ServiceKind/String : Complete Main
Default : Нет
Forced : Нет
Аудио #3
Идентификатор : 4
Формат : AC-3
Формат/Информация : Audio Coding 3
Идентификатор кодека : A_AC3
Продолжительность : 1 ч. 29 м.
Вид битрейта : Постоянный
Битрейт : 448 Кбит/сек
Каналы : 6 каналов
Расположение каналов : Front: L C R, Side: L R, LFE
Частота : 48, 0 КГц
Частота кадров : 31, 250 кадров/сек (1536 SPF)
Битовая глубина : 16 бит
Метод сжатия : С потерями
Размер потока : 287 Мбайт (3%)
Заголовок : AVO Визгунов
Язык : Russian
ServiceKind/String : Complete Main
Default : Нет
Forced : Нет
Аудио #4
Идентификатор : 5
Формат : AC-3
Формат/Информация : Audio Coding 3
Идентификатор кодека : A_AC3
Продолжительность : 1 ч. 29 м.
Вид битрейта : Постоянный
Битрейт : 448 Кбит/сек
Каналы : 6 каналов
Расположение каналов : Front: L C R, Side: L R, LFE
Частота : 48, 0 КГц
Частота кадров : 31, 250 кадров/сек (1536 SPF)
Битовая глубина : 16 бит
Метод сжатия : С потерями
Размер потока : 287 Мбайт (3%)
Заголовок : AVO Дольский (ранний)
Язык : Russian
ServiceKind/String : Complete Main
Default : Нет
Forced : Нет
Аудио #5
Идентификатор : 6
Формат : AC-3
Формат/Информация : Audio Coding 3
Идентификатор кодека : A_AC3
Продолжительность : 1 ч. 29 м.
Вид битрейта : Постоянный
Битрейт : 640 Кбит/сек
Каналы : 6 каналов
Расположение каналов : Front: L C R, Side: L R, LFE
Частота : 48, 0 КГц
Частота кадров : 31, 250 кадров/сек (1536 SPF)
Битовая глубина : 16 бит
Метод сжатия : С потерями
Размер потока : 410 Мбайт (4%)
Заголовок : Original
Язык : English
ServiceKind/String : Complete Main
Default : Нет
Forced : Нет
Текст #1
Идентификатор : 7
Формат : UTF-8
Идентификатор кодека : S_TEXT/UTF8
Идентификатор кодека/Информация : UTF-8 Plain Text
Продолжительность : 1 ч. 24 м.
Битрейт : 58 бит/сек
ElementCount : 577
Размер потока : 36, 3 Кбайт (0%)
Язык : Russian
Default : Нет
Forced : Нет
Текст #2
Идентификатор : 8
Формат : UTF-8
Идентификатор кодека : S_TEXT/UTF8
Идентификатор кодека/Информация : UTF-8 Plain Text
Продолжительность : 1 ч. 25 м.
Битрейт : 40 бит/сек
ElementCount : 890
Размер потока : 25, 4 Кбайт (0%)
Заголовок : SDH
Язык : English
Default : Нет
Forced : Нет
Меню
00: 00: 00.000 : : Глава 01
00: 05: 00.000 : : Глава 02
00: 10: 00.000 : : Глава 03
00: 15: 00.000 : : Глава 04
00: 20: 00.000 : : Глава 05
00: 25: 00.000 : : Глава 06
00: 30: 00.000 : : Глава 07
00: 35: 00.000 : : Глава 08
00: 40: 00.000 : : Глава 09
00: 45: 00.000 : : Глава 10
00: 50: 00.000 : : Глава 11
00: 55: 00.000 : : Глава 12
01: 00: 00.000 : : Глава 13
01: 05: 00.000 : : Глава 14
01: 10: 00.000 : : Глава 15
01: 15: 00.000 : : Глава 16
01: 20: 00.000 : : Глава 17
01: 25: 00.000 : : Глава 18

Другие торренты по теме:

  • Калейдоскоп ужасов 2 / Creepshow 2 (1987) BDRemux [H.264 / 1080p]
  • Калейдоскоп ужасов / Creepshow (1982) BDRip [H.264 / 720p] [Remastered]
  • Калейдоскоп ужасов / Creepshow (2019) WEB-DL [H.264 / 1080p] (сезон 1, серии 1 из 13) HDRezka Studio (обновляемая)
  • Калейдоскоп ужасов 3 / Creepshow 3 (2006) BDRip [H.265 / 1080p] [10-bit]
  • Калейдоскоп ужасов / Creepshow (1982) BDRip [H.265 / 1080p] [10-bit]

  • Посетители, находящиеся в группе Гости, не могут оставлять комментарии в данной новости.