Подписывайся на наш канал в Telegram https://t.me/torrentok и получи доступ к торрентам без ограничений!

Потрошители / Repo Men (2010) BDRip [H.264 / 1080p] [Unrated] торрент скачать бесплатно

Потрошители / Repo Men (2010) BDRip [H.264 / 1080p] [Unrated]Производство: США/Universal Pictures, Relativity Media
Жанр: Фантастика, боевик, триллер
Режиссер: Мигель Сапочник

Актеры
Джуд Лоу, Форест Уитакер, Алиси Брага, Лив Шрайбер, Кэрис Ван Хаутен, Чандлер Кентербери, Джо Пинг, Лиза Лапира, Тиффани Эспенсен, Ивет Николь Браун

Описание

В недалеком будущем искусственные органы будут доступны всем и даже в кредит. Если же человек не в состоянии оплатить долг, то принимаются крайне жесткие меры. Однажды к нему в дом может вломиться Потрошитель, который способен подавить любое сопротивление и должен изъять из него искусственный орган, собственность компании Union. Реми как раз такой — и охотник, и жертва — он Потрошитель, и он же не может оплатить пересадку сердца, а посему вынужден пуститься в бега.


Возраст: 16+ (зрителям, достигшим 16 лет)
Рейтинг MPAA: R (лицам до 17 лет обязательно присутствие взрослого)
Релиз от: KORSAR
Продолжительность: 01: 59: 37
Качество видео: BDRip
Перевод: Дублированный, авторский
Субтитры: Русские, украинские, английские
Видео: AVC/H.264, 1920x816, ~8450 Kbps
Аудио 1: AC3, 6 ch, 640 Kbps - Русский (DUB, BD CEE)
Аудио 2: AC3, 6 ch, 640 Kbps - Русский (AVO, А. Гаврилов)
Аудио 3: AC3, 6 ch, 640 Kbps - Русский (AVO, Ю.Немахов)
Аудио 4: AC3, 6 ch, 640 Kbps - Русский (AVO, Д. Есарев)
Аудио 5: AC3, 2 ch, 192 Kbps - Украинский (MVO, ТК Украина)
Аудио 6: AC3, 6 ch, 640 Kbps - Английский (Оригинал)General
Unique ID : 65387774793987354945364812522118878948 (0x31313A336E11E21C3BA9761AFAE696E4)
Complete name : Потрошители - Repo Men UNRATED (2010) BDRip 1080p - KORSAR.mkv
Format : Matroska
Format version : Version 4/Version 2
File size : 9.88 GiB
Duration : 1 h 59 min
Overall bit rate : 11.8 Mb/s
Movie name : Repo Men (2010)_rip_by_Cthulhu
Encoded date : UTC 2019-12-15 10: 39: 09
Writing application : mkvmerge v37.0.0 (\'Leave It\') 64-bit
Writing library : libebml v1.3.9 + libmatroska v1.5.2
Cover : Yes
Attachments : cover4.png
Video
ID : 1
Format : AVC
Format/Info : Advanced Video Codec
Format profile : [email protected]
Format settings : CABAC/5 Ref Frames
Format settings, CABAC : Yes
Format settings, ReFrames : 5 frames
Codec ID : V_MPEG4/ISO/AVC
Duration : 1 h 59 min
Bit rate : 8 450 kb/s
Width : 1 920 pixels
Height : 816 pixels
Display aspect ratio : 2.35: 1
Frame rate mode : Constant
Frame rate : 23.976 (24000/1001) FPS
Color space : YUV
Chroma subsampling : 4: 2: 0
Bit depth : 8 bits
Scan type : Progressive
Bits/(Pixel*Frame) : 0.225
Stream size : 7.05 GiB (71%)
Writing library : x264 core 152 r2851kMod ba24899
Encoding settings : cabac=1/ref=5/deblock=1: -1: -1/analyse=0x3: 0x133/me=umh/subme=11/psy=1/fade_compensate=0.00/psy_rd=1.03: 0.10/mixed_ref=1/me_range=48/chroma_me=1/trellis=2/8x8dct=1/cqm=0/deadzone=21, 11/fast_pskip=0/chroma_qp_offset=-3/threads=24/lookahead_threads=6/sliced_threads=0/nr=0/decimate=1/interlaced=0/bluray_compat=0/constrained_intra=0/bframes=12/b_pyramid=2/b_adapt=2/b_bias=0/direct=3/weightb=1/open_gop=0/weightp=2/keyint=240/keyint_min=23/scenecut=40/intra_refresh=0/rc_lookahead=60/rc=2pass/mbtree=0/bitrate=8450/ratetol=1.0/qcomp=0.60/qpmin=0/qpmax=39/qpstep=4/cplxblur=20.0/qblur=0.5/vbv_maxrate=50000/vbv_bufsize=62500/nal_hrd=none/filler=0/ip_ratio=1.40/pb_ratio=1.30/aq=3: 0.70
Language : English
Default : Yes
Forced : No
Color range : Limited
Color primaries : BT.709
Transfer characteristics : BT.709
Matrix coefficients : BT.709
Audio #1
ID : 2
Format : AC-3
Format/Info : Audio Coding 3
Commercial name : Dolby Digital
Codec ID : A_AC3
Duration : 1 h 59 min
Bit rate mode : Constant
Bit rate : 640 kb/s
Channel(s) : 6 channels
Channel layout : L R C LFE Ls Rs
Sampling rate : 48.0 kHz
Frame rate : 31.250 FPS (1536 SPF)
Bit depth : 16 bits
Compression mode : Lossy
Stream size : 547 MiB (5%)
Title : DUB (Blu-ray CEE)
Language : Russian
Service kind : Complete Main
Default : Yes
Forced : No
Audio #2
ID : 3
Format : AC-3
Format/Info : Audio Coding 3
Commercial name : Dolby Digital
Codec ID : A_AC3
Duration : 1 h 59 min
Bit rate mode : Constant
Bit rate : 640 kb/s
Channel(s) : 6 channels
Channel layout : L R C LFE Ls Rs
Sampling rate : 48.0 kHz
Frame rate : 31.250 FPS (1536 SPF)
Bit depth : 16 bits
Compression mode : Lossy
Stream size : 547 MiB (5%)
Title : AVO (Гаврилов)
Language : Russian
Service kind : Complete Main
Default : No
Forced : No
Audio #3
ID : 4
Format : AC-3
Format/Info : Audio Coding 3
Commercial name : Dolby Digital
Codec ID : A_AC3
Duration : 1 h 59 min
Bit rate mode : Constant
Bit rate : 640 kb/s
Channel(s) : 6 channels
Channel layout : L R C LFE Ls Rs
Sampling rate : 48.0 kHz
Frame rate : 31.250 FPS (1536 SPF)
Bit depth : 16 bits
Compression mode : Lossy
Stream size : 547 MiB (5%)
Title : AVO (Немахов)
Language : Russian
Service kind : Complete Main
Default : No
Forced : No
Audio #4
ID : 5
Format : AC-3
Format/Info : Audio Coding 3
Commercial name : Dolby Digital
Codec ID : A_AC3
Duration : 1 h 59 min
Bit rate mode : Constant
Bit rate : 640 kb/s
Channel(s) : 6 channels
Channel layout : L R C LFE Ls Rs
Sampling rate : 48.0 kHz
Frame rate : 31.250 FPS (1536 SPF)
Bit depth : 16 bits
Compression mode : Lossy
Stream size : 547 MiB (5%)
Title : AVO (Есарев)
Language : Russian
Service kind : Complete Main
Default : No
Forced : No
Audio #5
ID : 6
Format : AC-3
Format/Info : Audio Coding 3
Commercial name : Dolby Digital
Codec ID : A_AC3
Duration : 1 h 59 min
Bit rate mode : Constant
Bit rate : 192 kb/s
Channel(s) : 2 channels
Channel layout : L R
Sampling rate : 48.0 kHz
Frame rate : 31.250 FPS (1536 SPF)
Bit depth : 16 bits
Compression mode : Lossy
Stream size : 164 MiB (2%)
Title : MVO
Language : Ukrainian
Service kind : Complete Main
Default : No
Forced : No
Audio #6
ID : 7
Format : AC-3
Format/Info : Audio Coding 3
Commercial name : Dolby Digital
Codec ID : A_AC3
Duration : 1 h 59 min
Bit rate mode : Constant
Bit rate : 640 kb/s
Channel(s) : 6 channels
Channel layout : L R C LFE Ls Rs
Sampling rate : 48.0 kHz
Frame rate : 31.250 FPS (1536 SPF)
Bit depth : 16 bits
Compression mode : Lossy
Stream size : 547 MiB (5%)
Language : English
Service kind : Complete Main
Default : No
Forced : No
Text #1
ID : 8
Format : UTF-8
Codec ID : S_TEXT/UTF8
Codec ID/Info : UTF-8 Plain Text
Duration : 1 h 54 min
Bit rate : 1 b/s
Count of elements : 30
Stream size : 926 Bytes (0%)
Title : forced
Language : Russian
Default : No
Forced : No
Text #2
ID : 9
Format : UTF-8
Codec ID : S_TEXT/UTF8
Codec ID/Info : UTF-8 Plain Text
Duration : 1 h 53 min
Bit rate : 82 b/s
Count of elements : 1252
Stream size : 68.1 KiB (0%)
Title : full (voronin)
Language : Russian
Default : No
Forced : No
Text #3
ID : 10
Format : UTF-8
Codec ID : S_TEXT/UTF8
Codec ID/Info : UTF-8 Plain Text
Duration : 1 h 53 min
Bit rate : 88 b/s
Count of elements : 1386
Stream size : 73.3 KiB (0%)
Title : full SDH (voronin)
Language : Russian
Default : No
Forced : No
Text #4
ID : 11
Format : UTF-8
Codec ID : S_TEXT/UTF8
Codec ID/Info : UTF-8 Plain Text
Duration : 1 h 53 min
Bit rate : 107 b/s
Count of elements : 1386
Stream size : 89.3 KiB (0%)
Title : full SDH-Colored (voronin)
Language : Russian
Default : No
Forced : No
Text #5
ID : 12
Format : UTF-8
Codec ID : S_TEXT/UTF8
Codec ID/Info : UTF-8 Plain Text
Duration : 1 h 52 min
Bit rate : 80 b/s
Count of elements : 1320
Stream size : 66.5 KiB (0%)
Title : full (Notabenoid)
Language : Russian
Default : No
Forced : No
Text #6
ID : 13
Format : UTF-8
Codec ID : S_TEXT/UTF8
Codec ID/Info : UTF-8 Plain Text
Duration : 1 h 54 min
Bit rate : 1 b/s
Count of elements : 30
Stream size : 1.15 KiB (0%)
Title : forced
Language : Ukrainian
Default : No
Forced : No
Text #7
ID : 14
Format : UTF-8
Codec ID : S_TEXT/UTF8
Codec ID/Info : UTF-8 Plain Text
Duration : 1 h 59 min
Bit rate : 71 b/s
Count of elements : 1232
Stream size : 62.6 KiB (0%)
Title : full
Language : Ukrainian
Default : No
Forced : No
Text #8
ID : 15
Format : UTF-8
Codec ID : S_TEXT/UTF8
Codec ID/Info : UTF-8 Plain Text
Duration : 1 h 52 min
Bit rate : 51 b/s
Count of elements : 1328
Stream size : 42.2 KiB (0%)
Title : full
Language : English
Default : No
Forced : No
Text #9
ID : 16
Format : UTF-8
Codec ID : S_TEXT/UTF8
Codec ID/Info : UTF-8 Plain Text
Duration : 1 h 52 min
Bit rate : 52 b/s
Count of elements : 1482
Stream size : 43.4 KiB (0%)
Title : full SDH
Language : English
Default : No
Forced : No
Menu
00: 00: 00.000 : en: 1. No Need For Violence
00: 05: 25.659 : en: 2. The Union
00: 11: 04.080 : en: 3. A Job\'s a Job
00: 17: 51.654 : en: 4. Just A Kidney
00: 24: 19.541 : en: 5. Enforcing The Rules
00: 27: 57.259 : en: 6. Knockout #3
00: 32: 25.068 : en: 7. You\'re A Very Lucky Man
00: 41: 45.503 : en: 8. Past Due
00: 48: 22.858 : en: 9. Two Pieces Of The Same Puzzle
00: 52: 38.906 : en: 10. Robbing Banks
00: 56: 50.157 : en: 11. Artificial Everything
01: 02: 16.691 : en: 12. A Cautionary Tale
01: 06: 25.481 : en: 13. Jumping Credit
01: 11: 15.313 : en: 14. Security Jam
01: 21: 25.839 : en: 15. Can\'t Go Back
01: 27: 19.025 : en: 16. No Escape
01: 34: 07.809 : en: 17. Wipe The System
01: 40: 56.050 : en: 18. Scanning Out
01: 49: 25.016 : en: 19. Sweet Dreams
01: 53: 19.459 : en: 20. End Titles

Скриншоты для ознакомления



Все одноименные релизы в Клубе
Время раздачи: 24/7 (мультитрекерная раздача)

Другие торренты по теме:

  • Потрошители / Repo Men (2010) BDRip [H.264 / 720p] [UNRATED]
  • Потрошители / Repo Men (Расширенная версия / UNRATED) (2010) [1080p] BDRip
  • Потрошители / Repo Men (2010) Blu-ray [H.264 / 1080p] [UNRATED]

  • Посетители, находящиеся в группе Гости, не могут оставлять комментарии в данной новости.