Подписывайся на наш канал в Telegram https://t.me/torrentok и получи доступ к торрентам без ограничений!

Джон Картер / John Carter (2012) BDRip [H.265 / 1080p] [10-bit] торрент скачать бесплатно

Джон Картер / John Carter (2012) BDRip [H.265 / 1080p] [10-bit]Производство: США/Walt Disney Pictures
Жанр: Фантастика, боевик, приключения
Режиссер: Эндрю Стэнтон

Актеры
Тейлор Китч, Линн Коллинс, Марк Стронг, Доминик Уэст, Джеймс Пьюрфой, Брайан Крэнстон, Дэрил Сабара, Аманда Клэйтон, Киаран Хиндс, Николас Вудесон

Описание

Ветеран Гражданской войны в США Джон Картер против своей воли оказывается на Марсе, где попадает в плен к воинственным четырехметровым туземцам. Картеру предстоит не только спастись самому, но и спасти принцессу Дею Торис из Гелиума.


Возраст: 12+ (зрителям, достигшим 12 лет)
Рейтинг MPAA: PG-13 (детям до 13 лет просмотр нежелателен)
Релиз от: KORSAR
Продолжительность: 02: 12: 01
Качество видео: BDRip
Перевод: Дублированный, авторский
Субтитры: Русские, английские
Видео: HEVC/H.265, 1920x800, ~8597 Kbps
Аудио 1: AC3, 6 ch, 640 Kbps - Русский (DUB, Blu-Ray)
Аудио 2: AC3, 6 ch, 640 Kbps - Русский (AVO, А. Гаврилов)
Аудио 3: AC3, 6 ch, 640 Kbps - Русский (AVO, Ю. Сербин)
Аудио 4: AC3, 6 ch, 640 Kbps - Украинский (DUB, Blu-Ray)
Аудио 5: AC3, 6 ch, 640 Kbps - Английский (Оригинал)General
Unique ID : 172320833365349247199679218998836534813 (0x81A3C9098D6DCCB928E0CAEB1E751E1D)
Complete name : Джон Картер - John Carter (2012) BDRip-HEVC 1080p - KORSAR.mkv
Format : Matroska
Format version : Version 4/Version 2
File size : 10.9 GiB
Duration : 2 h 12 min
Overall bit rate : 11.8 Mb/s
Movie name : John Carter (2012)_rip_by_Cthulhu
Encoded date : UTC 2020-01-29 16: 17: 42
Writing application : mkvmerge v37.0.0 (\'Leave It\') 64-bit
Writing library : libebml v1.3.9 + libmatroska v1.5.2
Cover : Yes
Attachments : cover15.jpg
Video
ID : 1
Format : HEVC
Format/Info : High Efficiency Video Coding
Format profile : [email protected]@High
Codec ID : V_MPEGH/ISO/HEVC
Duration : 2 h 12 min
Bit rate : 8 597 kb/s
Width : 1 920 pixels
Height : 800 pixels
Display aspect ratio : 2.40: 1
Frame rate mode : Constant
Frame rate : 23.976 (24000/1001) FPS
Color space : YUV
Chroma subsampling : 4: 2: 0
Bit depth : 10 bits
Bits/(Pixel*Frame) : 0.233
Stream size : 7.93 GiB (73%)
Writing library : x265 3.2.1+3-b4b2ecac21f6: WindowsMSVC 190064 bit 10bit
Encoding settings : cpuid=1111039/frame-threads=4/numa-pools=16/wpp/no-pmode/no-pme/no-psnr/no-ssim/log-level=2/input-csp=1/input-res=1920x800/interlace=0/total-frames=189932/level-idc=41/high-tier=1/uhd-bd=0/ref=5/no-allow-non-conformance/no-repeat-t_heads/annexb/no-aud/no-hrd/info/hash=0/no-temporal-layers/open-gop/min-keyint=23/keyint=240/gop-lookahead=0/bframes=16/b-adapt=2/b-pyramid/bframe-bias=0/rc-lookahead=60/lookahead-slices=1/scenecut=40/radl=0/no-splice/no-intra-refresh/ctu=32/min-cu-size=8/rect/amp/max-tu-size=32/tu-inter-depth=4/tu-intra-depth=4/limit-tu=1/rdoq-level=2/dynamic-rd=0.00/no-ssim-rd/signhide/no-tskip/nr-intra=0/nr-inter=0/no-constrained-intra/no-strong-intra-smoothing/max-merge=5/limit-refs=3/limit-modes/me=2/subme=7/merange=57/temporal-mvp/hme/Level/weightp/weightb/no-analyze-src-pics/deblock=-2: -2/no-sao/no-sao-non-deblock/rd=6/selective-sao=0/no-early-skip/no-rskip/no-fast-intra/no-tskip-fast/no-cu-lossless/no-b-intra/no-splitrd-skip/rdpenalty=0/psy-rd=2.00/psy-rdoq=1.10/no-rd-refine/no-lossless/cbqpoffs=0/crqpoffs=0/rc=crf/crf=18.7/qcomp=0.68/qpstep=4/stats-write=0/stats-read=0/vbv-maxrate=50000/vbv-bufsize=50000/vbv-init=0.9/crf-max=0.0/crf-min=0.0/ipratio=1.40/pbratio=1.30/aq-mode=4/aq-strength=0.70/no-cutree/zone-count=1/zones: /start-frame=180346/end-frame=189931/qp=35/no-strict-cbr/qg-size=32/no-rc-grain/qpmax=69/qpmin=0/no-const-vbv/sar=1/overscan=0/videoformat=5/range=0/colorprim=1/transfer=1/colormatrix=1/chromaloc=0/display-window=0/cll=0, 0/min-luma=0/max-luma=1023/log2-max-poc-lsb=8/vui-timing-info/vui-hrd-info/slices=1/no-opt-qp-pps/no-opt-ref-list-length-pps/no-multi-pass-opt-rps/scenecut-bias=0.05/no-opt-cu-delta-qp/no-aq-motion/no-hdr/no-hdr-opt/no-dhdr10-opt/no-idr-recovery-sei/analysis-reuse-level=5/scale-factor=0/refine-intra=0/refine-inter=0/refine-mv=1/refine-ctu-distortion=0/no-limit-sao/ctu-info=0/no-lowpass-dct/refine-analysis-type=0/copy-pic=1/max-ausize-factor=1.0/no-dynamic-refine/no-single-sei/no-hevc-aq/no-svt/no-field/qp-adaptation-range=1.00
Language : English
Default : Yes
Forced : No
Color range : Limited
Color primaries : BT.709
Transfer characteristics : BT.709
Matrix coefficients : BT.709
Audio #1
ID : 2
Format : AC-3
Format/Info : Audio Coding 3
Commercial name : Dolby Digital
Codec ID : A_AC3
Duration : 2 h 12 min
Bit rate mode : Constant
Bit rate : 640 kb/s
Channel(s) : 6 channels
Channel layout : L R C LFE Ls Rs
Sampling rate : 48.0 kHz
Frame rate : 31.250 FPS (1536 SPF)
Bit depth : 16 bits
Compression mode : Lossy
Stream size : 604 MiB (5%)
Title : DUB
Language : Russian
Service kind : Complete Main
Default : Yes
Forced : No
Audio #2
ID : 3
Format : AC-3
Format/Info : Audio Coding 3
Commercial name : Dolby Digital
Codec ID : A_AC3
Duration : 2 h 12 min
Bit rate mode : Constant
Bit rate : 640 kb/s
Channel(s) : 6 channels
Channel layout : L R C LFE Ls Rs
Sampling rate : 48.0 kHz
Frame rate : 31.250 FPS (1536 SPF)
Bit depth : 16 bits
Compression mode : Lossy
Stream size : 604 MiB (5%)
Title : AVO (Гаврилов)
Language : Russian
Service kind : Complete Main
Default : No
Forced : No
Audio #3
ID : 4
Format : AC-3
Format/Info : Audio Coding 3
Commercial name : Dolby Digital
Codec ID : A_AC3
Duration : 2 h 12 min
Bit rate mode : Constant
Bit rate : 640 kb/s
Channel(s) : 6 channels
Channel layout : L R C LFE Ls Rs
Sampling rate : 48.0 kHz
Frame rate : 31.250 FPS (1536 SPF)
Bit depth : 16 bits
Compression mode : Lossy
Stream size : 604 MiB (5%)
Title : AVO (Сербин)
Language : Russian
Service kind : Complete Main
Default : No
Forced : No
Audio #4
ID : 5
Format : AC-3
Format/Info : Audio Coding 3
Commercial name : Dolby Digital
Codec ID : A_AC3
Duration : 2 h 12 min
Bit rate mode : Constant
Bit rate : 640 kb/s
Channel(s) : 6 channels
Channel layout : L R C LFE Ls Rs
Sampling rate : 48.0 kHz
Frame rate : 31.250 FPS (1536 SPF)
Bit depth : 16 bits
Compression mode : Lossy
Stream size : 604 MiB (5%)
Title : DUB
Language : Ukrainian
Service kind : Complete Main
Default : No
Forced : No
Audio #5
ID : 6
Format : AC-3
Format/Info : Audio Coding 3
Commercial name : Dolby Digital
Codec ID : A_AC3
Duration : 2 h 12 min
Bit rate mode : Constant
Bit rate : 640 kb/s
Channel(s) : 6 channels
Channel layout : L R C LFE Ls Rs
Sampling rate : 48.0 kHz
Frame rate : 31.250 FPS (1536 SPF)
Bit depth : 16 bits
Compression mode : Lossy
Stream size : 604 MiB (5%)
Language : English
Service kind : Complete Main
Default : No
Forced : No
Text #1
ID : 7
Format : UTF-8
Codec ID : S_TEXT/UTF8
Codec ID/Info : UTF-8 Plain Text
Duration : 34 min 1 s
Bit rate : 8 b/s
Count of elements : 60
Stream size : 2.16 KiB (0%)
Title : forced
Language : Russian
Default : No
Forced : No
Text #2
ID : 8
Format : UTF-8
Codec ID : S_TEXT/UTF8
Codec ID/Info : UTF-8 Plain Text
Duration : 2 h 2 min
Bit rate : 61 b/s
Count of elements : 1030
Stream size : 55.6 KiB (0%)
Title : full
Language : Russian
Default : No
Forced : No
Text #3
ID : 9
Format : UTF-8
Codec ID : S_TEXT/UTF8
Codec ID/Info : UTF-8 Plain Text
Duration : 34 min 1 s
Bit rate : 4 b/s
Count of elements : 61
Stream size : 1.18 KiB (0%)
Title : forced
Language : English
Default : No
Forced : No
Text #4
ID : 10
Format : UTF-8
Codec ID : S_TEXT/UTF8
Codec ID/Info : UTF-8 Plain Text
Duration : 2 h 2 min
Bit rate : 37 b/s
Count of elements : 1272
Stream size : 33.4 KiB (0%)
Title : full
Language : English
Default : No
Forced : No
Text #5
ID : 11
Format : UTF-8
Codec ID : S_TEXT/UTF8
Codec ID/Info : UTF-8 Plain Text
Duration : 2 h 2 min
Bit rate : 41 b/s
Count of elements : 1483
Stream size : 36.9 KiB (0%)
Title : SDH
Language : English
Default : No
Forced : No
Text #6
ID : 12
Format : UTF-8
Codec ID : S_TEXT/UTF8
Codec ID/Info : UTF-8 Plain Text
Duration : 2 h 2 min
Bit rate : 50 b/s
Count of elements : 1484
Stream size : 45.2 KiB (0%)
Title : SDH Colored
Language : English
Default : No
Forced : No
Menu
00: 00: 00.000 : : Opening Credits
00: 04: 01.241 : : The Will
00: 10: 22.913 : : Striking Gold
00: 20: 08.790 : : A New World
00: 27: 05.206 : : Barsoom
00: 37: 29.163 : : The Voice of Barsoom
00: 47: 43.569 : : Dotar Sojat
00: 58: 51.653 : : The Ninth Ray
01: 07: 42.433 : : The Iss
01: 15: 01.038 : : Two Cities Unitied
01: 22: 34.199 : : The Key To Jasoom
01: 30: 29.799 : : The Destruction of a World
01: 37: 02.066 : : The Arena
01: 46: 52.030 : : Change of Heart
01: 53: 48.988 : : The Empty Torub
02: 02: 54.533 : : End Credits

Скриншоты для ознакомления



Все одноименные релизы в Клубе
Время раздачи: 24/7 (мультитрекерная раздача)

Другие торренты по теме:

  • Джон Картер / John Carter (2012) BDRip [720p] [hand made 48fps] скачать через торрент бесплатно
  • Джон Картер / John Carter (2012) BDRip [720p] [hand made 60fps] скачать через торрент бесплатно
  • Джон Картер / John Carter (2012) BDRip [AVO] скачать через торрент бесплатно
  • Джон Картер / John Carter (2012) HDRip
  • Джон Картер / John Carter (2012) BDRemux [H.264 / 1080p]
  • Джон Картер / John Carter (2012) BDRip [H.265 / 1080p-LQ]
  • Джон Картер / John Carter (2012) HDRip [H.264] [MP4|1280x534]
  • Джон Картер / John Carter (2012) HDRip [H.264] [MP4|1920x800]

  • Посетители, находящиеся в группе Гости, не могут оставлять комментарии в данной новости.