Подписывайся на наш канал в Telegram https://t.me/torrentok и получи доступ к торрентам без ограничений!

Водный мир / Waterworld (1995) BDRip [H.265 / 1080p] [10-bit] [Ulysses Cut, Remastered] [GBR Transfer] торрент скачать бесплатно

Водный мир / Waterworld (1995) BDRip [H.265 / 1080p] [10-bit] [Ulysses Cut, Remastered] [GBR Transfer]Производство: США/Davis Entertainment, Gordon Company, Universal Pictures
Жанр: Фантастика, боевик, приключения
Режиссер: Кевин Рейнольдс

Актеры
Кевин Костнер, Сэб Шимоно, Дэннис Хоппер, Джинн Трипплхорн, Тина Мэйджорино, Майкл Джитер, Джерард Мерфи, Р Д Колл, Ким Коутс

Описание

В далеком будущем полярные снега растаяли, покрыв всю Землю водой. Авторы погружают нас в фантастический мир немногочисленных людей, живущих на воде, где самым дорогим являются пресная вода, земля, еда, сигареты и т. п. Курильщики убивают, грабят, обращают в рабство - используют двигатели внутреннего сгорания. Все остальные пытаются выжить, кто как может, а Кевин Костнер плавает сам по себе на своей фантастической лодке, но объединяет их всех одно - все они ищут остров. В одной из колоний живут очень красивая женщина и девочка с татуировкой на спине. А татуировка эта - часть карты, на которой и указан этот остров. Естественно, за ней и охотятся курильщики.


Возраст: 12+ (зрителям, достигшим 12 лет)
Рейтинг MPAA: PG-13 (детям до 13 лет просмотр нежелателен)
Релиз от: KORSAR
Продолжительность: 02: 57: 13
Качество видео: BDRip
Перевод: Профессиональный многоголосый, авторский
Субтитры: Русские, английские
Видео: HEVC/H.265, 1920x1036, ~13.3 Mbps
Аудио 1: AC3, 6 ch, 640 Kbps - Русский (MVO, СВ Студия)
Аудио 2: AC3, 6 ch, 448 Kbps - Русский (MVO, С.Р.И/Кравец)
Аудио 3: AC3, 6 ch, 384 Kbps - Русский (MVO, Киномания)
Аудио 4: AC3, 6 ch, 640 Kbps - Русский (AVO, Ю. Живов)
Аудио 5: AC3, 6 ch, 640 Kbps - Русский (AVO, А. Гаврилов)
Аудио 6: AC3, 6 ch, 640 Kbps - Русский (AVO, М. Яроцкий)
Аудио 7: AC3, 6 ch, 384 Kbps - Русский (AVO, Ю. Немахов)
Аудио 8: AC3, 6 ch, 640 Kbps - Английский (Оригинал)General
Unique ID : 245336314005917621674797862549127502925 (0xB8920E2C0134E1974A573AE358BD1C4D)
Complete name : Водный мир - Waterworld. The Ulysses Cut (1995) BDRip-HEVC 1080p - KORSAR.mkv
Format : Matroska
Format version : Version 4/Version 2
File size : 21.9 GiB
Duration : 2 h 57 min
Overall bit rate : 17.7 Mb/s
Movie name : Waterworld. The Ulysses Cut (1995)_rip_by_Cthulhu
Encoded date : UTC 2020-07-16 17: 00: 37
Writing application : mkvmerge v46.0.0 (\'No Deeper Escape\') 64-bit
Writing library : libebml v1.3.10 + libmatroska v1.5.2
Cover : Yes
Attachments : cover.jpg
Video
ID : 1
Format : HEVC
Format/Info : High Efficiency Video Coding
Format profile : [email protected]@High
Codec ID : V_MPEGH/ISO/HEVC
Duration : 2 h 57 min
Bit rate : 13.3 Mb/s
Width : 1 920 pixels
Height : 1 036 pixels
Display aspect ratio : 1.85: 1
Frame rate mode : Constant
Frame rate : 23.976 (23976/1000) FPS
Original frame rate : 23.976 (24000/1001) FPS
Color space : YUV
Chroma subsampling : 4: 2: 0
Bit depth : 10 bits
Bits/(Pixel*Frame) : 0.278
Stream size : 16.4 GiB (75%)
Writing library : x265 3.0_Au+3-5b90dc59b57a: WindowsGCC 9.0.164 bit 10bit
Encoding settings : cpuid=1176575/frame-threads=4/numa-pools=16/wpp/no-pmode/no-pme/no-psnr/no-ssim/log-level=2/input-csp=1/input-res=1920x1036/interlace=0/total-frames=254928/level-idc=41/high-tier=1/uhd-bd=0/ref=4/no-allow-non-conformance/no-repeat-t_heads/annexb/no-aud/no-hrd/info/hash=0/no-temporal-layers/open-gop/min-keyint=23/keyint=240/gop-lookahead=0/bframes=10/b-adapt=2/b-pyramid/bframe-bias=0/rc-lookahead=60/lookahead-slices=4/scenecut=40/radl=0/no-splice/no-intra-refresh/ctu=32/min-cu-size=8/rect/amp/max-tu-size=32/tu-inter-depth=4/tu-intra-depth=4/limit-tu=1/rdoq-level=2/dynamic-rd=0.00/no-ssim-rd/signhide/no-tskip/nr-intra=0/nr-inter=0/no-constrained-intra/no-strong-intra-smoothing/max-merge=5/limit-refs=1/limit-modes/me=3/subme=7/merange=57/temporal-mvp/weightp/weightb/no-analyze-src-pics/deblock=-3: -3/no-sao/no-sao-non-deblock/rd=6/no-early-skip/rskip/no-fast-intra/no-tskip-fast/no-cu-lossless/b-intra/no-splitrd-skip/rdpenalty=0/psy-rd=1.00/psy-rdoq=1.00/no-rd-refine/no-lossless/cbqpoffs=0/crqpoffs=0/rc=crf/crf=19.0/qcomp=0.80/qpstep=4/stats-write=0/stats-read=0/vbv-maxrate=50000/vbv-bufsize=50000/vbv-init=0.9/crf-max=0.0/crf-min=0.0/ipratio=1.40/pbratio=1.30/aq-mode=1/aq-strength=0.60/no-cutree/zone-count=1/zones: /start-frame=244832/end-frame=254927/qp=35/no-strict-cbr/qg-size=32/no-rc-grain/qpmax=69/qpmin=0/no-const-vbv/sar=1/overscan=0/videoformat=5/range=0/colorprim=1/transfer=1/colormatrix=1/chromaloc=0/display-window=0/max-cll=0, 0/min-luma=0/max-luma=1023/log2-max-poc-lsb=8/vui-timing-info/vui-hrd-info/slices=1/no-opt-qp-pps/no-opt-ref-list-length-pps/no-multi-pass-opt-rps/scenecut-bias=0.05/no-opt-cu-delta-qp/no-aq-motion/no-hdr/no-hdr-opt/no-dhdr10-opt/no-idr-recovery-sei/analysis-reuse-level=5/scale-factor=0/refine-intra=0/refine-inter=0/refine-mv=0/refine-ctu-distortion=0/no-limit-sao/ctu-info=0/no-lowpass-dct/refine-analysis-type=0/copy-pic=1/max-ausize-factor=1.0/no-dynamic-refine/no-single-sei/hevc-aq/qp-adaptation-range=2.00
Language : English
Default : Yes
Forced : No
Color range : Limited
Color primaries : BT.709
Transfer characteristics : BT.709
Matrix coefficients : BT.709
Audio #1
ID : 2
Format : AC-3
Format/Info : Audio Coding 3
Commercial name : Dolby Digital
Codec ID : A_AC3
Duration : 2 h 57 min
Bit rate mode : Constant
Bit rate : 640 kb/s
Channel(s) : 6 channels
Channel layout : L R C LFE Ls Rs
Sampling rate : 48.0 kHz
Frame rate : 31.250 FPS (1536 SPF)
Bit depth : 16 bits
Compression mode : Lossy
Stream size : 811 MiB (4%)
Title : MVO СВ Студия
Language : Russian
Service kind : Complete Main
Default : Yes
Forced : No
Audio #2
ID : 3
Format : AC-3
Format/Info : Audio Coding 3
Commercial name : Dolby Digital
Codec ID : A_AC3
Duration : 2 h 57 min
Bit rate mode : Constant
Bit rate : 448 kb/s
Channel(s) : 6 channels
Channel layout : L R C LFE Ls Rs
Sampling rate : 48.0 kHz
Frame rate : 31.250 FPS (1536 SPF)
Bit depth : 16 bits
Compression mode : Lossy
Stream size : 568 MiB (3%)
Title : MVO С.Р.И/Кравец
Language : Russian
Service kind : Complete Main
Default : No
Forced : No
Audio #3
ID : 4
Format : AC-3
Format/Info : Audio Coding 3
Commercial name : Dolby Digital
Codec ID : A_AC3
Duration : 2 h 57 min
Bit rate mode : Constant
Bit rate : 384 kb/s
Channel(s) : 6 channels
Channel layout : L R C LFE Ls Rs
Sampling rate : 48.0 kHz
Frame rate : 31.250 FPS (1536 SPF)
Bit depth : 16 bits
Compression mode : Lossy
Stream size : 487 MiB (2%)
Title : MVO Киномания
Language : Russian
Service kind : Complete Main
Default : No
Forced : No
Audio #4
ID : 5
Format : AC-3
Format/Info : Audio Coding 3
Commercial name : Dolby Digital
Codec ID : A_AC3
Duration : 2 h 57 min
Bit rate mode : Constant
Bit rate : 640 kb/s
Channel(s) : 6 channels
Channel layout : L R C LFE Ls Rs
Sampling rate : 48.0 kHz
Frame rate : 31.250 FPS (1536 SPF)
Bit depth : 16 bits
Compression mode : Lossy
Stream size : 811 MiB (4%)
Title : AVO Живов
Language : Russian
Service kind : Complete Main
Default : No
Forced : No
Audio #5
ID : 6
Format : AC-3
Format/Info : Audio Coding 3
Commercial name : Dolby Digital
Codec ID : A_AC3
Duration : 2 h 57 min
Bit rate mode : Constant
Bit rate : 640 kb/s
Channel(s) : 6 channels
Channel layout : L R C LFE Ls Rs
Sampling rate : 48.0 kHz
Frame rate : 31.250 FPS (1536 SPF)
Bit depth : 16 bits
Compression mode : Lossy
Stream size : 811 MiB (4%)
Title : AVO Гаврилов
Language : Russian
Service kind : Complete Main
Default : No
Forced : No
Audio #6
ID : 7
Format : AC-3
Format/Info : Audio Coding 3
Commercial name : Dolby Digital
Codec ID : A_AC3
Duration : 2 h 57 min
Bit rate mode : Constant
Bit rate : 640 kb/s
Channel(s) : 6 channels
Channel layout : L R C LFE Ls Rs
Sampling rate : 48.0 kHz
Frame rate : 31.250 FPS (1536 SPF)
Bit depth : 16 bits
Compression mode : Lossy
Stream size : 811 MiB (4%)
Title : AVO Яроцкий
Language : Russian
Service kind : Complete Main
Default : No
Forced : No
Audio #7
ID : 8
Format : AC-3
Format/Info : Audio Coding 3
Commercial name : Dolby Digital
Codec ID : A_AC3
Duration : 2 h 57 min
Bit rate mode : Constant
Bit rate : 384 kb/s
Channel(s) : 6 channels
Channel layout : L R C LFE Ls Rs
Sampling rate : 48.0 kHz
Frame rate : 31.250 FPS (1536 SPF)
Bit depth : 16 bits
Compression mode : Lossy
Stream size : 487 MiB (2%)
Title : AVO Немахов
Language : Russian
Service kind : Complete Main
Default : No
Forced : No
Audio #8
ID : 9
Format : AC-3
Format/Info : Audio Coding 3
Commercial name : Dolby Digital
Codec ID : A_AC3
Duration : 2 h 57 min
Bit rate mode : Constant
Bit rate : 640 kb/s
Channel(s) : 6 channels
Channel layout : L R C LFE Ls Rs
Sampling rate : 48.0 kHz
Frame rate : 31.250 FPS (1536 SPF)
Bit depth : 16 bits
Compression mode : Lossy
Stream size : 811 MiB (4%)
Title : Original
Language : English
Service kind : Complete Main
Default : No
Forced : No
Text #1
ID : 10
Format : UTF-8
Codec ID : S_TEXT/UTF8
Codec ID/Info : UTF-8 Plain Text
Duration : 2 h 48 min
Bit rate : 57 b/s
Count of elements : 1506
Stream size : 71.2 KiB (0%)
Language : Russian
Default : No
Forced : No
Text #2
ID : 11
Format : UTF-8
Codec ID : S_TEXT/UTF8
Codec ID/Info : UTF-8 Plain Text
Duration : 2 h 46 min
Bit rate : 35 b/s
Count of elements : 1384
Stream size : 43.3 KiB (0%)
Language : English
Default : No
Forced : No
Text #3
ID : 12
Format : UTF-8
Codec ID : S_TEXT/UTF8
Codec ID/Info : UTF-8 Plain Text
Duration : 2 h 47 min
Bit rate : 37 b/s
Count of elements : 1475
Stream size : 45.6 KiB (0%)
Title : SDH
Language : English
Default : No
Forced : No
Menu
00: 00: 00.000 : en: Chapter 1
00: 09: 56.137 : en: Chapter 2
00: 23: 40.336 : en: Chapter 3
00: 35: 22.037 : en: Chapter 4
00: 50: 23.312 : en: Chapter 5
01: 04: 59.604 : en: Chapter 6
01: 27: 51.516 : en: Chapter 7
01: 41: 14.819 : en: Chapter 8
02: 05: 47.123 : en: Chapter 9
02: 15: 10.853 : en: Chapter 10
02: 25: 46.905 : en: Chapter 11
02: 37: 42.453 : en: Chapter 12

Другие торренты по теме:

  • Водный мир / Waterworld (1995) BDRemux [H.264 / 1080p] скачать через торрент бесплатно
  • Водный мир / Waterworld (1995) BDRip [H.265 / 1080p-LQ]
  • Водный мир / Waterworld (1995) BDRip [H.264] [Theatrical Cut] [REMASTERED]
  • Водный мир / Waterworld (1995) BDRip [H.264] [Ulysses Cut, Remastered]
  • Водный мир / Waterworld (1995) AC3 2.0 [TV1000] [Theatrical Cut]
  • Водный мир / Waterworld (1995) UHD BDRemux [H.265 / 2160p] [4K, HDR, 10-bit] [Theatrical Cut] [PR]
  • Водный мир / Waterworld (1995) UHD Blu-ray [H.265 / 2160p] [4K, HDR, 10-bit] [2-in-1: Theatrical & Unrated Cut] [EUR]
  • Водный мир / Waterworld (1995) BDRemux [H.264 / 1080p] [Ulysses Cut, Remastered] [GBR Transfer]

  • Посетители, находящиеся в группе Гости, не могут оставлять комментарии в данной новости.