Подписывайся на наш канал в Telegram https://t.me/torrentok и получи доступ к торрентам без ограничений!

Уиджи: Проклятие Вероники / Veronica (2017) BDRip [H.264 / 1080p] торрент скачать бесплатно

Уиджи: Проклятие Вероники / Veronica (2017) BDRip [H.264 / 1080p]Производство: Испания, Apaches Entertainment
Жанр: Ужасы
Режиссер: Пако Пласа
Продюсер: Мария Ангуло, Хавьер Карнерос, Мар Илундаин

Актеры
Сандра Эскасена, Бруна Гонсалес, Клаудия Плейсер, Иван Чаверо, Ана Торрент, Консуэло Трухильо, Анхела Фабиан, Карла Кампра, Миранда Гас

Описание

Уиджи — это доска для спиритических сеансов вызова душ умерших. Ее называют доской Дьявола, потому что общение с загробным миром не обходится для живого человека без последствий. Тот, кто берет в руки Уиджи, должен знать, что она обладает страшной властью открывать врата чудовищному злу, противостоять которому практически невозможно.
Вероника, красивая и веселая старшеклассница, даже представить не могла, чем для нее закончится то, что она считала невинной игрой…


Возраст: 18+ (зрителям, достигшим 18 лет. запрещено для детей)
Дата мировой премьеры: 25 августа 2017, ...
Дата российской премьеры: 8 февраля 2018, Cinema Prestige
Релиз: ExKinoRay
Продолжительность: 01: 45: 22
Качество видео: BDRip
Перевод: Дублированный (iTunes)
Субтитры: Английские (Full)
Видео: AVC/H.264, 1920x1040, ~13.2 Mbps
Аудио 1: AC3, 6 ch, 384 kbps - Русский
Аудио 2: AC3, 6 ch, 640 kbps - Испанский
Общее
Уникальный идентификатор : 175127931471476542887329551572974452723 (0x83C069A8CD189EBAAC25D982208C3FF3)
Полное имя : D: NNMClubVeronica.2017.BDRip.1080p.ExKinoRay.mkv
Формат : Matroska
Версия формата : Version 4
Размер файла : 10, 4 Гбайт
Продолжительность : 1 ч. 45 м.
Общий поток : 14, 2 Мбит/сек
Название фильма : Veronica 2017 from ExKinoRay
Дата кодирования : UTC 2018-05-07 20: 59: 37
Программа кодирования : mkvmerge v7.3.0 (\'Nouages\') 64bit built on Oct 22 2014 18: 53: 34
Библиотека кодирования : libebml v1.3.0 + libmatroska v1.4.1
Видео
Идентификатор : 1
Формат : AVC
Формат/Информация : Advanced Video Codec
Профиль формата : [email protected]
Настройки формата : CABAC/4 Ref Frames
Параметр CABAC формата : Да
Параметр RefFrames формата : 4 кадра
Идентификатор кодека : V_MPEG4/ISO/AVC
Продолжительность : 1 ч. 45 м.
Битрейт : 13, 2 Мбит/сек
Ширина : 1920 пикселей
Высота : 1040 пикселей
Соотношение сторон : 1, 85: 1
Режим частоты кадров : Постоянный
Частота кадров : 24, 000 кадра/сек
Цветовое пространство : YUV
Субдискретизация насыщенности : 4: 2: 0
Битовая глубина : 8 бит
Тип развёртки : Прогрессивная
Бит/(Пиксели*Кадры) : 0.275
Размер потока : 9, 68 Гбайт (93%)
Библиотека кодирования : x264 core 142 r2431+42 c69a006 tMod [email protected]: 2: 0 X86_64
Настройки программы : cabac=1/ref=4/deblock=1: -3: -3/analyse=0x3: 0x113/me=umh/subme=10/psy=1/fade_compensate=0.00/psy_rd=1.00: 0.05/mixed_ref=1/me_range=48/chroma_me=1/trellis=2/8x8dct=1/cqm=0/deadzone=21, 11/fast_pskip=0/chroma_qp_offset=-2/threads=48/lookahead_threads=8/sliced_threads=0/nr=0/decimate=1/interlaced=0/bluray_compat=0/constrained_intra=0/fgo=0/bframes=8/b_pyramid=2/b_adapt=2/b_bias=0/direct=3/weightb=1/open_gop=0/weightp=2/keyint=250/keyint_min=24/scenecut=40/intra_refresh=0/rc_lookahead=40/rc=crf/mbtree=0/crf=17.3000/qcomp=0.60/qpmin=0: 0: 0/qpmax=69: 69: 69/qpstep=4/vbv_maxrate=40000/vbv_bufsize=30000/crf_max=0.0/nal_hrd=none/filler=0/ip_ratio=1.40/pb_ratio=1.30/aq=3: 0.80/aq-sensitivity=10.00/aq-factor=1.00: 1.00: 1.00/aq2=0/aq3=0
Язык : English
Default : Да
Forced : Нет
Цветовой диапазон : Limited
Коэффициенты матрицы : BT.709
Аудио #1
Идентификатор : 2
Формат : AC-3
Формат/Информация : Audio Coding 3
Коммерческое название : Dolby Digital
Идентификатор кодека : A_AC3
Продолжительность : 1 ч. 45 м.
Вид битрейта : Постоянный
Битрейт : 384 Кбит/сек
Каналы : 6 каналов
ChannelLayout : L R C LFE Ls Rs
Частота : 48, 0 КГц
Частота кадров : 31, 250 кадров/сек (1536 SPF)
Битовая глубина : 16 бит
Метод сжатия : С потерями
Размер потока : 289 Мбайт (3%)
Заголовок : iTunes
Язык : Russian
ServiceKind/String : Complete Main
Default : Да
Forced : Да
Аудио #2
Идентификатор : 3
Формат : AC-3
Формат/Информация : Audio Coding 3
Коммерческое название : Dolby Digital
Идентификатор кодека : A_AC3
Продолжительность : 1 ч. 45 м.
Вид битрейта : Постоянный
Битрейт : 640 Кбит/сек
Каналы : 6 каналов
ChannelLayout : L R C LFE Ls Rs
Частота : 48, 0 КГц
Частота кадров : 31, 250 кадров/сек (1536 SPF)
Битовая глубина : 16 бит
Метод сжатия : С потерями
Размер потока : 482 Мбайт (5%)
Заголовок : Original
Язык : Spanish
ServiceKind/String : Complete Main
Default : Нет
Forced : Нет
Текст
Идентификатор : 4
Формат : UTF-8
Идентификатор кодека : S_TEXT/UTF8
Идентификатор кодека/Информация : UTF-8 Plain Text
Продолжительность : 1 ч. 39 м.
Битрейт : 40 бит/сек
ElementCount : 1052
Размер потока : 29, 5 Кбайт (0%)
Заголовок : Full
Язык : English
Default : Нет
Forced : Нет
Меню
00: 00: 00.000 : en: Chapter 1
00: 07: 50.375 : en: Chapter 2
00: 17: 37.542 : en: Chapter 3
00: 27: 09.458 : en: Chapter 4
00: 35: 07.833 : en: Chapter 5
00: 42: 55.333 : en: Chapter 6
00: 53: 43.167 : en: Chapter 7
01: 02: 12.542 : en: Chapter 8
01: 10: 09.542 : en: Chapter 9
01: 18: 47.833 : en: Chapter 10
01: 27: 14.583 : en: Chapter 11
01: 37: 33.875 : en: Chapter 12

Гойя, 2018 год
Победитель (1):
Лучший звук
Номинации (6):
Лучший фильм
Лучший режиссер (Пако Пласа)
Лучшая актриса-дебютант (Сандра Эскасена)
Лучший сценарий
Лучшие спецэффекты
Лучший оригинальный саундтрек

В фильме Вероника и её одноклассницы играют с доской Уиджи во время полного солнечного затмения 12 июня 1991 года. На самом деле полное солнечное затмение произошло 11 июля 1991 года.
Каждая неинструментальная песня в саундтреке к фильму принадлежит испанской рок-группе Heroes del Silencio. Вероника слушает их песни на плеере Walkman. В её комнате висят как минимум 2 плаката и 1 календарь этой группы. В некоторых сценах Вероника носит футболку с названием группы.
Фильм основан на реальных событиях, произошедших с Эстефанией Гутьеррес Лазаро (Estefanía Gutiérrez Lázaro) и её семьёй в 1991 году. 18-летняя Эстефания спустя несколько месяцев после игры с доской Уиджи с двумя одноклассницами начала видеть и ощущать в своём доме паранормальную активность. Она умерла 14 августа 1991 года, через шесть месяцев после первой игры с доской Уиджи. После её смерти паранормальная активность в доме увеличилась. Это было зафиксировано в официально поданном рапорте работниками Национального полицейского корпуса Испании, которые стали свидетелями этих явлений 27 ноября 1992 года.

Скриншоты для ознакомления



Все одноименные релизы в Клубе
Время раздачи: 24/7 (круглосуточно) (до появления первых 3-5 скачавших)

Другие торренты по теме:

  • Уиджи. Проклятие доски дьявола / Ouija: Origin of Evil (2016) WEB-DL [H.264 / 720p-LQ]
  • Уиджи. Проклятие доски дьявола / Ouija: Origin of Evil (2016) WEB-DL [H.264 / 1080p-LQ]
  • Уиджи. Проклятие доски дьявола / Ouija: Origin of Evil (2016) WEB-DLRip
  • Уиджи. Проклятие доски дьявола / Ouija: Origin of Evil (2016) BDRip [H.264 / 720p] [EN / EN Sub]
  • Уиджи. Проклятие доски дьявола / Ouija: Origin of Evil (2016) BDRip [H.264 / 720p]
  • Уиджи. Проклятие доски дьявола / Ouija: Origin of Evil (2016) BDRip [H.264 / 1080p] [EN / EN Sub]
  • Уиджи. Проклятие доски дьявола / Ouija: Origin of Evil (2016) BDRemux [H.264 / 1080p]
  • Уиджи. Проклятие доски дьявола / Ouija: Origin of Evil (2016) BDRip [H.264 / 1080p]

  • Посетители, находящиеся в группе Гости, не могут оставлять комментарии в данной новости.