Подписывайся на наш канал в Telegram https://t.me/torrentok и получи доступ к торрентам без ограничений!

Однажды в Ирландии / The Guard (2011) BDRip [H.264 / 720p] торрент скачать бесплатно

Однажды в Ирландии / The Guard (2011) BDRip [H.264 / 720p]Производство: Ирландия/Reprisal Films, Element Pictures, Hindsight Media
Жанр: триллер, комедия, криминал
Режиссер: Джон Майкл МакДона

Актеры
Брендан Глисон, Дон Чидл, Марк Стронг, Лиам Каннингэм, Финола Флэнаган, Дэвид Уилмот, Лоуренс Кинлан, Катарина Час, Доминик МакЭллигот, Гари Лайдон

Описание

Женщины, выпивка и веселые шутки – вот радости добродушного ирландского полицейского, сержанта Джерри Бойла. Он никогда не помышлял о геройстве, пока однажды в городишке Голуэй не появился агент ФБР, который призвал незадачливого служителя порядка помочь ему накрыть международную банду наркоторговцев. Смогут ли сработаться веселый рыжий ирландец и решительный афроамериканец? Ведь дело, за которое они взялись, окажется таким же непредсказуемым, как и они сами...


Возраст: 16+ (зрителям, достигшим 16 лет)
Рейтинг MPAA: R (лицам до 17 лет обязательно присутствие взрослого)
Продолжительность: 01: 35: 50
Качество видео: BDRip
Перевод: Многоголосый профессиональный, авторский
Присутствует ненормативная лексика
Субтитры: русские, английские
Видео: AVC/H.264, 1280x544, ~4611 kbps
Аудио 1: AC3, 6 ch, 384 kbps, Русский (MVO Проект Продакшн)
Аудио 2: AC3, 6 ch, 640 kbps, Русский (AVO Д.Пучков Goblin)(нецензурный)
Аудио 3: AC3, 6 ch, 640 kbps, Русский (AVO Д.Пучков Goblin)(цензурный)
Аудио 4: AC3, 6 ch, 640 kbps, Русский (AVO Ю.Сербин)(нецензурный)
Аудио 5: AC3, 6 ch, 640 kbps, Английский
Общее
Уникальный идентификатор : 244668365501410017283625091017641926724 (0xB81169C49D3C66F9B00ED3D0F101A044)
Полное имя : F: CINEMAThe.Guard.2011.BDRip.720p.mkv
Формат : Matroska
Версия формата : Version 4
Размер файла : 5, 06 Гбайт
Продолжительность : 1 ч. 35 м.
Общий поток : 7 554 Кбит/сек
Название фильма : The Guard (2011)
Дата кодирования : UTC 2020-08-20 06: 06: 13
Программа кодирования : mkvmerge v8.2.0 (\'World of Adventure\') 64bit
Библиотека кодирования : libebml v1.3.1 + libmatroska v1.4.2
Видео
Идентификатор : 1
Формат : AVC
Формат/Информация : Advanced Video Codec
Профиль формата : [email protected]
Настройки формата : CABAC/11 Ref Frames
Параметр CABAC формата : Да
Параметр RefFrames формата : 11 кадров
Идентификатор кодека : V_MPEG4/ISO/AVC
Продолжительность : 1 ч. 35 м.
Битрейт : 4 611 Кбит/сек
Ширина : 1 280 пикселей
Высота : 544 пикселя
Соотношение сторон : 2, 35: 1
Режим частоты кадров : Постоянный
Частота кадров : 23, 976 (24000/1001) кадра/сек
Цветовое пространство : YUV
Субдискретизация насыщенности : 4: 2: 0
Битовая глубина : 8 бит
Тип развёртки : Прогрессивная
Бит/(Пиксели*Кадры) : 0.276
Размер потока : 3, 08 Гбайт (61%)
Заголовок : The Guard
Библиотека кодирования : x264 core 140 r2377 1ca7bb9
Настройки программы : cabac=1/ref=11/deblock=1: -3: -3/analyse=0x3: 0x133/me=umh/subme=11/psy=1/psy_rd=1.00: 0.10/mixed_ref=1/me_range=32/chroma_me=1/trellis=2/8x8dct=1/cqm=0/deadzone=21, 11/fast_pskip=0/chroma_qp_offset=-3/threads=6/lookahead_threads=1/sliced_threads=0/nr=0/decimate=0/interlaced=0/bluray_compat=0/constrained_intra=0/bframes=7/b_pyramid=2/b_adapt=2/b_bias=0/direct=3/weightb=1/open_gop=0/weightp=2/keyint=240/keyint_min=23/scenecut=40/intra_refresh=0/rc=2pass/mbtree=0/bitrate=4611/ratetol=1.0/qcomp=0.60/qpmin=0/qpmax=69/qpstep=4/cplxblur=20.0/qblur=0.5/ip_ratio=1.40/pb_ratio=1.30/aq=1: 0.90
Язык : English
Default : Да
Forced : Нет
Аудио #1
Идентификатор : 2
Формат : AC-3
Формат/Информация : Audio Coding 3
Коммерческое название : Dolby Digital
Идентификатор кодека : A_AC3
Продолжительность : 1 ч. 35 м.
Вид битрейта : Постоянный
Битрейт : 384 Кбит/сек
Каналы : 6 каналов
Channel layout : L R C LFE Ls Rs
Частота : 48, 0 КГц
Частота кадров : 31, 250 кадров/сек (1536 SPF)
Метод сжатия : С потерями
Размер потока : 263 Мбайт (5%)
Заголовок : MVO Проект Продакшн
Язык : Russian
Service kind : Complete Main
Default : Да
Forced : Нет
Аудио #2
Идентификатор : 3
Формат : AC-3
Формат/Информация : Audio Coding 3
Коммерческое название : Dolby Digital
Идентификатор кодека : A_AC3
Продолжительность : 1 ч. 35 м.
Вид битрейта : Постоянный
Битрейт : 640 Кбит/сек
Каналы : 6 каналов
Channel layout : L R C LFE Ls Rs
Частота : 48, 0 КГц
Частота кадров : 31, 250 кадров/сек (1536 SPF)
Метод сжатия : С потерями
Размер потока : 439 Мбайт (8%)
Заголовок : AVO Д.Пучков (нецензурный)
Язык : Russian
Service kind : Complete Main
Default : Нет
Forced : Нет
Аудио #3
Идентификатор : 4
Формат : AC-3
Формат/Информация : Audio Coding 3
Коммерческое название : Dolby Digital
Идентификатор кодека : A_AC3
Продолжительность : 1 ч. 35 м.
Вид битрейта : Постоянный
Битрейт : 640 Кбит/сек
Каналы : 6 каналов
Channel layout : L R C LFE Ls Rs
Частота : 48, 0 КГц
Частота кадров : 31, 250 кадров/сек (1536 SPF)
Метод сжатия : С потерями
Размер потока : 439 Мбайт (8%)
Заголовок : AVO Д.Пучков (цензурный)
Язык : Russian
Service kind : Complete Main
Default : Нет
Forced : Нет
Аудио #4
Идентификатор : 5
Формат : AC-3
Формат/Информация : Audio Coding 3
Коммерческое название : Dolby Digital
Идентификатор кодека : A_AC3
Продолжительность : 1 ч. 35 м.
Вид битрейта : Постоянный
Битрейт : 640 Кбит/сек
Каналы : 6 каналов
Channel layout : L R C LFE Ls Rs
Частота : 48, 0 КГц
Частота кадров : 31, 250 кадров/сек (1536 SPF)
Метод сжатия : С потерями
Размер потока : 439 Мбайт (8%)
Заголовок : AVO Ю.Сербин
Язык : Russian
Service kind : Complete Main
Default : Нет
Forced : Нет
Аудио #5
Идентификатор : 6
Формат : AC-3
Формат/Информация : Audio Coding 3
Коммерческое название : Dolby Digital
Идентификатор кодека : A_AC3
Продолжительность : 1 ч. 35 м.
Вид битрейта : Постоянный
Битрейт : 640 Кбит/сек
Каналы : 6 каналов
Channel layout : L R C LFE Ls Rs
Частота : 48, 0 КГц
Частота кадров : 31, 250 кадров/сек (1536 SPF)
Метод сжатия : С потерями
Размер потока : 439 Мбайт (8%)
Заголовок : Original
Язык : English
Service kind : Complete Main
Default : Нет
Forced : Нет
Текст #1
Идентификатор : 7
Формат : UTF-8
Идентификатор кодека : S_TEXT/UTF8
Идентификатор кодека/Информация : UTF-8 Plain Text
Продолжительность : 1 ч. 28 м.
Битрейт : 112 бит/сек
Count of elements : 1235
Размер потока : 72, 8 Кбайт (0%)
Язык : Russian
Default : Нет
Forced : Нет
Текст #2
Идентификатор : 8
Формат : UTF-8
Идентификатор кодека : S_TEXT/UTF8
Идентификатор кодека/Информация : UTF-8 Plain Text
Продолжительность : 1 ч. 28 м.
Битрейт : 67 бит/сек
Count of elements : 1206
Размер потока : 43, 8 Кбайт (0%)
Язык : English
Default : Нет
Forced : Нет
Меню
00: 00: 00.000 : en: 00: 00: 00.000
00: 02: 59.763 : en: 00: 02: 59.763
00: 12: 39.217 : en: 00: 12: 39.217
00: 19: 56.654 : en: 00: 19: 56.654
00: 26: 52.444 : en: 00: 26: 52.444
00: 37: 54.063 : en: 00: 37: 54.063
00: 45: 10.041 : en: 00: 45: 10.041
00: 51: 44.018 : en: 00: 51: 44.018
01: 00: 21.076 : en: 01: 00: 21.076
01: 09: 32.585 : en: 01: 09: 32.585
01: 16: 51.106 : en: 01: 16: 51.106
01: 27: 47.846 : en: 01: 27: 47.846
01: 35: 38.900 : en: 01: 35: 38.900
Многоголосый закадровый перевод : запись со спутника Eutelsat 36A/36B (36°E) | TV1000 Comedy HD (эфир 19.08.2017г.)
Роли озвучивали: Олег Куценко, Антон Колесников, Ольга Сирина, Владимир Рыбальченко
За Uncensored звучку Д.Пучкова спасибоkarasidi
Скриншоты для ознакомления



Все одноименные релизы в Клубе
Время раздачи: c 5 до 19 мск (до появления первых 3-5 скачавших)

Другие торренты по теме:

  • Однажды в Ирландии / The Guard (2011) BDRemux [H.264 / 1080p]
  • Однажды в Ирландии / The Guard (2011) AC3 5.1 AVO Д. Пучков (Гоблин) [hand made]

  • Посетители, находящиеся в группе Гости, не могут оставлять комментарии в данной новости.