Подписывайся на наш канал в Telegram https://t.me/torrentok и получи доступ к торрентам без ограничений!

Третья ракета (1963) DVDRip [H.264] торрент скачать бесплатно

Третья ракета (1963) DVDRip [H.264]Производство: СССР/Беларусьфильм
Жанр: Военный, Драма
Режиссер: Ричард Викторов

Актеры
Станислав Любшин, Георгий Жжёнов, Сергей Федотов, Надежда Семенцова, Игорь Комаров, Юрий Дубровин, Леонид Давыдов-Субоч, Владимир Прокофьев, Евгений Гвоздев

Описание

Фильм снят по одноимённой повести Василя Быкова. Великая Отечественная война в Белоруссии. Артиллерийский расчет трое суток в отрыве от своих. Судьба свела в одном окопе на передовой очень разных людей, которым предстояло выдержать первую танковую атаку немцев. В тяжелой обстановке постоянной смертельной опасности раскрываются человеческие характеры.


Возраст: 12+ (зрителям, достигшим 12 лет)
Продолжительность: 01: 16: 24
Качество видео: DVDRip
Субтитры: отсутствует
Видео: AVC/H.264, [email protected], ~2350 kbps
Аудио: AC3, 2 ch, 256 kbps - Русский
Complete name : D: Третья_ракета.1963.DVDRip-AVC.mkv
Format : Matroska
File size : 1.39 GiB
Duration : 1h 16mn
Overall bit rate : 2 610 Kbps
Encoded date : UTC 2014-12-23
Writing application : mkvmerge v5.2.0 (\'I can\'t explain\') built on Dec 18 2011 18: 12: 03
Writing library : libebml v1.2.3 + libmatroska v1.3.0
Video
ID : 1
Format : AVC
Format/Info : Advanced Video Codec
Format profile : [email protected]
Format settings, CABAC : Yes
Format settings, ReFrames : 15 frames
Codec ID : V_MPEG4/ISO/AVC
Duration : 1h 16mn
Bit rate : 2 350 Kbps
Width : 696 pixels
Height : 570 pixels
Display aspect ratio : 4: 3
Frame rate : 25.000 fps
Color space : YUV
Chroma subsampling : 4: 2: 0
Bit depth : 8 bits
Scan type : Progressive
Bits/(Pixel*Frame) : 0.237
Stream size : 1.23 GiB (88%)
Writing library : x264 core 142 r2431 ac76440
Encoding settings : cabac=1/ref=15/deblock=1: -2: -2/analyse=0x3: 0x133/me=umh/subme=10/psy=1/psy_rd=1.05: 0.23/mixed_ref=1/me_range=32/chroma_me=1/trellis=2/8x8dct=1/cqm=0/deadzone=21, 11/fast_pskip=0/chroma_qp_offset=-3/threads=12/lookahead_threads=2/sliced_threads=0/nr=0/decimate=0/interlaced=0/bluray_compat=0/constrained_intra=0/bframes=7/b_pyramid=2/b_adapt=2/b_bias=0/direct=1/weightb=1/open_gop=0/weightp=2/keyint=250/keyint_min=25/scenecut=40/intra_refresh=0/rc=2pass/mbtree=0/bitrate=2350/ratetol=1.0/qcomp=0.60/qpmin=0/qpmax=39/qpstep=4/cplxblur=20.0/qblur=0.5/ip_ratio=1.40/pb_ratio=1.30/aq=1: 1.00
Language : English
Color primaries : BT.470-6 System B, BT.470-6 System G, BT.601-6 625, BT.1358 625, BT.1700 625 PAL, BT.1700 625 SECAM
Transfer characteristics : BT.470-6 System B, BT.470-6 System G
Matrix coefficients : BT.470-6 System B, BT.470-6 System G, BT.601-6 625, BT.1358 625, BT.1700 625 PAL, BT.1700 625 SECAM, IEC 61966-2-4 601
Audio
ID : 2
Format : AC-3
Format/Info : Audio Coding 3
Mode extension : CM (complete main)
Codec ID : A_AC3
Duration : 1h 16mn
Bit rate mode : Constant
Bit rate : 256 Kbps
Channel(s) : 2 channels
Channel positions : Front: L R
Sampling rate : 48.0 KHz
Bit depth : 16 bits
Stream size : 140 MiB (10%)
Language : Russian

Скриншоты для ознакомления


Все одноименные релизы в Клубе
Время раздачи: с 19-00 до 22-00 МСК (до появления первых 3-5 скачавших)

Другие торренты по теме:

  • Третья ракета (1963) DVDRip

  • Посетители, находящиеся в группе Гости, не могут оставлять комментарии в данной новости.