Подписывайся на наш канал в Telegram https://t.me/torrentok и получи доступ к торрентам без ограничений!

Убийцы / Murderers (1956) BDRip торрент скачать бесплатно

Убийцы / Murderers (1956) BDRipПроизводство: СССР/ВГИК
Жанр: Короткометражный, драма
Режиссер: Марика Бейку, Александр Гордон, Андрей Тарковский

Актеры
Юлий Файт, Александр Гордон, Валентин Виноградов, Вадим Новиков, Юрий Дубровин, Андрей Тарковский, Василий Шукшин

Описание

Убийцы — короткометражная экранизация одноименного рассказа американского писателя Эрнеста Хемингуэя (англ. The Killers, 1927), курсовая работа, поставленная осенью 1956 года группой студентов ВГИКа, обучавшихся в режиссёрском классе Михаила Ромма.
Обычный вечер в маленьком городке. В бар заходят два подозрительных молодых человека. Они будут ждать Оле Андерсона, чтобы убить его…


Возраст: 0+ (для любой зрительской аудитории)
Продолжительность: 00: 20: 38
Качество видео: BDRip
Субтитры: Отсутствуют
Видео: Xvid, 720x544 (4: 3), ~2315 Kbps
Аудио: AC3, 1 ch, 192 Kbps - русский
Общее
Полное имя : G: Убийцы (1956).avi
Формат : AVI
Формат/Информация : Audio Video Interleave
Размер файла : 372 Мбайт
Продолжительность : 20 м. 38 с.
Общий поток : 2 518 Кбит/сек
Режиссёр : Last Boy Scout
Программа кодирования : VirtualDubMod 1.5.10.3 |www.virtualdub-fr.org|| (build 2550/release)
Авторское право : .org 16.02.2016
Примечание : BDRip
Видео
Идентификатор : 0
Формат : MPEG-4 Visual
Профиль формата : Advanced [email protected]
Настройки формата : BVOP1/Custom Matrix
Параметр BVOP формата : 1
Параметр QPel формата : Нет
Параметр GMC формата : Без точки перехода
Параметр матрицы формата : Выборочная
Идентификатор кодека : XVID
Идентификатор кодека/Подсказка : XviD
Продолжительность : 20 м. 38 с.
Битрейт : 2 317 Кбит/сек
Ширина : 720 пикселей
Высота : 544 пикселя
Соотношение сторон : 4: 3
Частота кадров : 23, 976 (24000/1001) кадра/сек
Цветовое пространство : YUV
Субдискретизация насыщенности : 4: 2: 0
Битовая глубина : 8 бит
Тип развёртки : Прогрессивная
Метод сжатия : С потерями
Бит/(Пиксели*Кадры) : 0.247
Размер потока : 342 Мбайт (92%)
Библиотека кодирования : XviD 73
Аудио
Идентификатор : 1
Формат : AC-3
Формат/Информация : Audio Coding 3
Коммерческое название : Dolby Digital
Идентификатор кодека : 2000
Продолжительность : 20 м. 38 с.
Вид битрейта : Постоянный
Битрейт : 192 Кбит/сек
Каналы : 1 канал
Channel layout : C
Частота : 48, 0 КГц
Частота кадров : 31, 250 кадров/сек (1536 SPF)
Метод сжатия : С потерями
Размер потока : 28, 3 Мбайт (8%)
Выравнивание : Разделение по промежуткам
Продолжительность промежутка : 42 мс. (1, 00 видеокадр)
Время предзагрузки промежутка : 500 мс.
Service kind : Complete Main

Скриншоты для ознакомления



Все одноименные релизы в Клубе
Время раздачи: 24/7 (круглосуточно) (до появления первых 3-5 скачавших)

Другие торренты по теме:

  • Прирождённые убийцы / Natural Born Killers [Directors cut / Режиссерская версия] (1994) BDRip [h.264]
  • The Witcher 2: Assassins of Kings / Ведьмак 2: Убийцы Королей (2011) GamePlayRip
  • BBC: Планета динозавров. Совершенные убийцы / Planet dinosaur. Ultimate killers (2012) BDRip [1080p] 3D [Вертикальная анаморфная стереопара]
  • Профиль убийцы / Profile of a Killer (2012) HDTVRip
  • Дневник наемного убийцы / Diary of a Hitman (1991) HDRip [AVO]
  • Убийцы (1956) DVDRip скачать через торрент бесплатно
  • The Witcher 2: Assassins of Kings / Ведьмак 2: Убийцы королей (2011) [Ru / Multi] (3.4.4.1) RePack R.G. Catalyst [Enhanced Edition] скачать через торрент бесплатно
  • Наемные убийцы / Assassins (1995) HDRip [AVO]

  • Посетители, находящиеся в группе Гости, не могут оставлять комментарии в данной новости.