Подписывайся на наш канал в Telegram https://t.me/torrentok и получи доступ к торрентам без ограничений!

Кикбоксер: Возмездие / Kickboxer: Vengeance (2016) WEBRip [H.264 / 1080p-LQ] [Open Matte] [Локализованная версия] [PR] торрент скачать бесплатно

Кикбоксер: Возмездие / Kickboxer: Vengeance (2016) WEBRip [H.264 / 1080p-LQ] [Open Matte] [Локализованная версия] [PR]Производство: США/Headmon Entertainment Productions, Radar Pictures
Жанр: боевик, драма, криминал, спорт
Режиссер: Джон Стокуэлл

Актеры
Жан-Клод Ван Дамм, Ален Мусси, Жорж Сен-Пьер, Т.Дж. Сторм , Мэттью Зифф, Сэм Медина, Дэйв Батиста, Сью-Линн Ансари, Даррен Шалави, Джина Карано

Описание

Сюжет разворачивается вокруг братьев из калифорнийской династии бойцов Эрика и Курта Слоан. Эрик погибает в одном из поединков в Гонконге. Узнав об этом, Курт едет в Таиланд к своему наставнику, с помощью которого рассчитывает обрести силу воли, чтобы отомстить за смерть брата.


Возраст: 16+ (зрителям, достигшим 16 лет)
Продолжительность: 01: 26: 38
Качество видео: WEBRip
Перевод: Многоголосый профессиональный
Субтитры: отсутствуют
Видео: AVC/H.264, 1920x1080, 25 fps, ~5120 Kbps
Аудио 1: AAC LC, 2 ch, 256 Kbps - Русский (MVO)
Аудио 2: AAC LC, 6 ch, 512 Kbps - Английский
General
Unique ID : 121126256994560612017706732084293578397 (0x5B20118BD1F819990AA77C1567D4AE9D)
Complete name : D: Kickboxer_2016_WEB-DL 1080p.mkv
Format : Matroska
Format version : Version 4
File size : 3.56 GiB
Duration : 1 h 26 min
Overall bit rate : 5 882 kb/s
Encoded date : UTC 2020-08-19 03: 26: 45
Writing application : mkvmerge v49.0.0 (\'Sick Of Losing Soulmates\') 64-bit
Writing library : libebml v1.4.0 + libmatroska v1.6.1
Video
ID : 1
Format : AVC
Format/Info : Advanced Video Codec
Format profile : [email protected]
Format settings : CABAC/4 Ref Frames
Format settings, CABAC : Yes
Format settings, Reference : 4 frames
Format settings, GOP : M=1, N=50
Codec ID : V_MPEG4/ISO/AVC
Duration : 1 h 26 min
Bit rate : 5 120 kb/s
Width : 1 920 pixels
Height : 1 080 pixels
Display aspect ratio : 16: 9
Frame rate mode : Constant
Frame rate : 25.000 FPS
Color space : YUV
Chroma subsampling : 4: 2: 0
Bit depth : 8 bits
Scan type : Progressive
Bits/(Pixel*Frame) : 0.099
Stream size : 3.09 GiB (87%)
Writing library : x264 core 142
Encoding settings : cabac=1/ref=3/deblock=1: 0: 0/analyse=0x3: 0x113/me=hex/subme=7/psy=1/psy_rd=1.00: 0.00/mixed_ref=1/me_range=16/chroma_me=1/trellis=1/8x8dct=1/cqm=0/deadzone=21, 11/fast_pskip=1/chroma_qp_offset=-2/threads=84/lookahead_threads=8/sliced_threads=0/nr=0/decimate=1/interlaced=0/bluray_compat=0/constrained_intra=0/bframes=6/b_pyramid=2/b_adapt=1/b_bias=0/direct=1/weightb=1/open_gop=0/weightp=2/keyint=50/keyint_min=26/scenecut=0/intra_refresh=0/rc_lookahead=40/rc=2pass/mbtree=1/bitrate=5120/ratetol=1.0/qcomp=0.60/qpmin=0/qpmax=69/qpstep=4/cplxblur=20.0/qblur=0.5/vbv_maxrate=7680/vbv_bufsize=20480/nal_hrd=none/filler=0/ip_ratio=1.40/aq=1: 1.00
Language : Russian
Default : Yes
Forced : No
Audio #1
ID : 2
Format : AAC LC
Format/Info : Advanced Audio Codec Low Complexity
Codec ID : A_AAC-2
Duration : 1 h 26 min
Bit rate : 256 kb/s
Channel(s) : 2 channels
Channel layout : L R
Sampling rate : 48.0 kHz
Frame rate : 46.875 FPS (1024 SPF)
Compression mode : Lossy
Stream size : 159 MiB (4%)
Language : Russian
Default : Yes
Forced : No
Audio #2
ID : 3
Format : AAC LC
Format/Info : Advanced Audio Codec Low Complexity
Codec ID : A_AAC-2
Duration : 1 h 26 min
Bit rate : 512 kb/s
Channel(s) : 6 channels
Channel layout : C L R Ls Rs LFE
Sampling rate : 48.0 kHz
Frame rate : 46.875 FPS (1024 SPF)
Compression mode : Lossy
Stream size : 317 MiB (9%)
Language : English
Default : No
Forced : No

Другие торренты по теме:

  • Кикбоксер: Возмездие (Кикбоксер возвращается) Kickboxer: Retaliation (2018) WEB-DL [H.264 / 1080p-LQ] [AVO]
  • Кикбоксер: Возмездие (Кикбоксер возвращается) Kickboxer: Retaliation (2018) WEB-DLRip [AVO]
  • Кикбоксер: Возмездие / Kickboxer: Retaliation (2017) WEBRip [H.264 / 1080p-LQ] [EN]
  • Кикбоксер 5: Возмездие / The Redemption: Kickboxer 5 (1995) BDRemux [H.264 / 1080p]

  • Посетители, находящиеся в группе Гости, не могут оставлять комментарии в данной новости.