Подписывайся на наш канал в Telegram https://t.me/torrentok и получи доступ к торрентам без ограничений!

Средь бела дня / The Cold Light of Day (2012) BDRip [H.264] [Open Matte] торрент скачать бесплатно

Средь бела дня / The Cold Light of Day (2012) BDRip [H.264] [Open Matte]Производство: США, Испания/Summit Entertainment, Intrepid Pictures, Galavis Film
Жанр: боевик, триллер
Режиссер: Мабрук Эль Мекри

Актеры
Генри Кавилл, Сигурни Уивер, Брюс Уиллис, Вероника Эчеги, Джозеф Моул, Кэролайн Гудолл, Рафи Гаврон, Эмма Хэмилтон, Рошди Зем, Оскар Хаэнада

Описание

Испания, море, яхта – отпуск с поднадоевшей молодому Уиллу Шоу компанией родственников... Никто не мог предположить, что уже через несколько часов палуба яхты обагрится кровью, а члены семьи Шоу станут заложниками в руках неизвестных. В поисках родных Уилл невольно узнает о государственном заговоре и раскрывает тайны своего отца. У парня всего несколько часов, чтобы спасти семью и страну от гибели.


Возраст: 16+ (зрителям, достигшим 16 лет)
Рейтинг MPAA: PG-13 (детям до 13 лет просмотр нежелателен)
Продолжительность: 01: 33: 50
Качество видео: BDRip
Перевод: Дублированный
Субтитры: русские, английские
Видео: AVC/H.264, 1024x576, 23.976 fps, ~2500 kbps
Аудио 1: AC3, 6 ch, 448 Kbps - Русский (DUB)
Аудио 2: AC3, 6 ch, 384 Kbps - Английский
General
Unique ID : 227487438690142967070671576866119263549 (0xAB247CACFBF7C982AE33E11DD220A53D)
Complete name : D: The Cold Light of Day (2012) Open Matte.mkv
Format : Matroska
Format version : Version 4
File size : 2.21 GiB
Duration : 1 h 33 min
Overall bit rate : 3 364 kb/s
Movie name : Средь бела дня/The Cold Light of Day (2012) (Open Matte) - #LORDKILL#
Encoded date : UTC 2020-08-22 15: 01: 49
Writing application : mkvmerge v8.3.0 (\'Over the Horizon\') 32bit
Writing library : libebml v1.3.1 + libmatroska v1.4.2
Video
ID : 1
Format : AVC
Format/Info : Advanced Video Codec
Format profile : [email protected]
Format settings : CABAC/11 Ref Frames
Format settings, CABAC : Yes
Format settings, Reference : 11 frames
Codec ID : V_MPEG4/ISO/AVC
Duration : 1 h 33 min
Bit rate : 2 500 kb/s
Width : 1 024 pixels
Height : 576 pixels
Display aspect ratio : 16: 9
Frame rate mode : Constant
Frame rate : 23.976 (24000/1001) FPS
Color space : YUV
Chroma subsampling : 4: 2: 0
Bit depth : 8 bits
Scan type : Progressive
Bits/(Pixel*Frame) : 0.177
Stream size : 1.66 GiB (75%)
Writing library : x264 core 159 r2991 1771b55
Encoding settings : cabac=1/ref=11/deblock=1: -2: -2/analyse=0x3: 0x113/me=umh/subme=10/psy=1/psy_rd=1.00: 0.20/mixed_ref=1/me_range=32/chroma_me=1/trellis=2/8x8dct=1/cqm=0/deadzone=21, 11/fast_pskip=0/chroma_qp_offset=-3/threads=12/lookahead_threads=2/sliced_threads=0/nr=0/decimate=1/interlaced=0/bluray_compat=0/constrained_intra=0/bframes=8/b_pyramid=2/b_adapt=2/b_bias=0/direct=3/weightb=1/open_gop=0/weightp=2/keyint=240/keyint_min=23/scenecut=40/intra_refresh=0/rc=2pass/mbtree=0/bitrate=2500/ratetol=1.0/qcomp=0.60/qpmin=0/qpmax=69/qpstep=4/cplxblur=20.0/qblur=0.5/ip_ratio=1.40/pb_ratio=1.30/aq=1: 1.00
Default : Yes
Forced : No
Audio #1
ID : 2
Format : AC-3
Format/Info : Audio Coding 3
Commercial name : Dolby Digital
Codec ID : A_AC3
Duration : 1 h 33 min
Bit rate mode : Constant
Bit rate : 448 kb/s
Channel(s) : 6 channels
Channel layout : L R C LFE Ls Rs
Sampling rate : 48.0 kHz
Frame rate : 31.250 FPS (1536 SPF)
Bit depth : 16 bits
Compression mode : Lossy
Stream size : 301 MiB (13%)
Language : Russian
Service kind : Complete Main
Default : Yes
Forced : No
Audio #2
ID : 3
Format : AC-3
Format/Info : Audio Coding 3
Commercial name : Dolby Digital
Codec ID : A_AC3
Duration : 1 h 33 min
Bit rate mode : Constant
Bit rate : 384 kb/s
Channel(s) : 6 channels
Channel layout : L R C LFE Ls Rs
Sampling rate : 48.0 kHz
Frame rate : 31.250 FPS (1536 SPF)
Bit depth : 16 bits
Compression mode : Lossy
Stream size : 257 MiB (11%)
Language : English
Service kind : Complete Main
Default : No
Forced : No
Text #1
ID : 4
Format : UTF-8
Codec ID : S_TEXT/UTF8
Codec ID/Info : UTF-8 Plain Text
Duration : 1 h 26 min
Bit rate : 55 b/s
Count of elements : 738
Stream size : 35.3 KiB (0%)
Language : Russian
Default : No
Forced : No
Text #2
ID : 5
Format : UTF-8
Codec ID : S_TEXT/UTF8
Codec ID/Info : UTF-8 Plain Text
Duration : 1 h 26 min
Bit rate : 37 b/s
Count of elements : 762
Stream size : 23.6 KiB (0%)
Language : English
Default : No
Forced : No

Другие торренты по теме:

  • Средь бела дня...(1983) SATRip скачать через торрент бесплатно
  • Средь бела дня / The Cold Light of Day (2012) BDRip [H.264 / 1080p] [Open Matte] [PR]

  • Посетители, находящиеся в группе Гости, не могут оставлять комментарии в данной новости.