Подписывайся на наш канал в Telegram https://t.me/torrentok и получи доступ к торрентам без ограничений!

Вампиры 2: День мертвых / Vampires: Los Muertos (2002) WEB-DLRip [H.264] торрент скачать бесплатно

Вампиры 2: День мертвых / Vampires: Los Muertos (2002) WEB-DLRip [H.264]Производство: США, Мексика/Estudios Churubusco Azteca S.A., Screen Gems, Storm King Productions
Жанр: Ужасы, боевик, триллер
Режиссер: Томми Ли Уоллес
Продюсер: Джек Лоренц, Роберт Лэтэм Браун, Джон Карпентер

Актеры
Джон Бон Джови, Кристиан де ла Фуэнте, Наташа Грегсон Вагнер, Арли Жовер, Дариус МакКрэри, Диего Луна, Ана Луиза Пардо, Онорато Магалони, Хавьер Грайеда, Томми Ли Уоллес

Описание

Вот уже в течение многих веков идет тайная война между Ватиканом и сообществом вампиров. Это скрытое противостояние удерживает мир от падения в пучину кровавой вакханалии. Суровые охотники на упырей, вооруженные благословением святого престола и серебряными пулями - единственная сила, удерживающая цивилизацию от эпидемии вампиризма, но на этот раз их ждет далеко не рядовая игра в кошки-мышки с бандой вурдалаков. Опасная охота превращается в настоящий кошмар, когда профессиональный истребитель нечисти Дерек Блисс и прошедший крещение боем священник Адам Гито выезжают в Мексику, где объявляется обладающая феноменальной мощью вампиресса Уна, собирающая под свои знамена орды кровососов.


Возраст: 18+ (зрителям, достигшим 18 лет. запрещено для детей)
Рейтинг MPAA: R (лицам до 17 лет обязательно присутствие взрослого)
Релиз от: winchester00100010
Продолжительность: 01: 33: 35
Качество видео: WEB-DLRip
Перевод: Профессиональный (Двухголосый закадровый), Профессиональный (Многоголосый закадровый)
Субтитры: отсутствуют
Видео: AVC/H.264, 1024х432, ~3487 kbps
Аудио 1: AC3, 6 ch, 448 kbps - Профессиональный (Двухголосый закадровый) Лицензия с DVD
Аудио 2: AC3, 2 ch, 192 kbps - Профессиональный (Многоголосый закадровый) Первый канал, РЕН-ТВ
x264 info: profile High, level 4.1, 4: 2: 0, 8-bit
x264 info: frame I: 1428 Avg QP: 14.79 size: 88045 PSNR Mean Y: 47.91 U: 51.22 V: 52.58 Avg: 48.86 Global: 48.46
x264 info: frame P: 29081 Avg QP: 16.73 size: 34771 PSNR Mean Y: 45.70 U: 50.08 V: 51.21 Avg: 46.80 Global: 46.19
x264 info: frame B: 104083 Avg QP: 18.53 size: 12568 PSNR Mean Y: 44.49 U: 49.25 V: 50.60 Avg: 45.65 Global: 45.09
Общее
Уникальный идентификатор : 197106517776732493799125659288131168998 (0x944955A09CEFD2A39E3892D8F7056AE6)
Полное имя : D: Мои раздачи и рипыВампиры.2.День.мертвых.Vampires.Los.Muertos.2002.AMZN.WEB-DLRip-AVC.mkv
Формат : Matroska
Версия формата : Version 2
Размер файла : 2, 70 Гбайт
Продолжительность : 1 ч. 33 м.
Общий поток : 4 126 Кбит/сек
Дата кодирования : UTC 2020-08-20 11: 36: 09
Программа кодирования : mkvmerge v5.8.0 (\'No Sleep/Pillow\') built on Sep 2 2012 15: 37: 04
Библиотека кодирования : libebml v1.2.3 + libmatroska v1.3.0
Видео
Идентификатор : 1
Формат : AVC
Формат/Информация : Advanced Video Codec
Профиль формата : [email protected]
Настройки формата : CABAC/12 Ref Frames
Параметр CABAC формата : Да
Параметр RefFrames формата : 12 кадров
Идентификатор кодека : V_MPEG4/ISO/AVC
Продолжительность : 1 ч. 33 м.
Битрейт : 3 487 Кбит/сек
Ширина : 1 024 пикселя
Высота : 432 пикселя
Соотношение сторон : 2, 40: 1
Режим частоты кадров : Постоянный
Частота кадров : 23, 976 (24000/1001) кадра/сек
Цветовое пространство : YUV
Субдискретизация насыщенности : 4: 2: 0
Битовая глубина : 8 бит
Тип развёртки : Прогрессивная
Бит/(Пиксели*Кадры) : 0.329
Размер потока : 2, 22 Гбайт (82%)
Библиотека кодирования : x264 core 160 r3009 4c9b076
Настройки программы : cabac=1/ref=12/deblock=1: -3: -3/analyse=0x3: 0x133/me=umh/subme=9/psy=1/psy_rd=1.00: 0.15/mixed_ref=1/me_range=32/chroma_me=1/trellis=2/8x8dct=1/cqm=0/deadzone=21, 11/fast_pskip=0/chroma_qp_offset=-3/threads=12/lookahead_threads=2/sliced_threads=0/nr=0/decimate=0/interlaced=0/bluray_compat=0/constrained_intra=0/bframes=6/b_pyramid=2/b_adapt=2/b_bias=0/direct=3/weightb=1/open_gop=0/weightp=2/keyint=240/keyint_min=23/scenecut=40/intra_refresh=0/rc_lookahead=40/rc=2pass/mbtree=0/bitrate=3487/ratetol=1.0/qcomp=0.60/qpmin=0/qpmax=69/qpstep=4/cplxblur=20.0/qblur=0.5/vbv_maxrate=50000/vbv_bufsize=62500/nal_hrd=none/filler=0/ip_ratio=1.40/pb_ratio=1.30/aq=1: 0.90
Язык : English
Default : Да
Forced : Нет
Duration_Source : General_Duration
Аудио #1
Идентификатор : 2
Формат : AC-3
Формат/Информация : Audio Coding 3
Коммерческое название : Dolby Digital
Идентификатор кодека : A_AC3
Продолжительность : 1 ч. 33 м.
Вид битрейта : Постоянный
Битрейт : 448 Кбит/сек
Каналы : 6 каналов
Channel layout : L R C LFE Ls Rs
Частота : 48, 0 КГц
Частота кадров : 31, 250 кадров/сек (1536 SPF)
Метод сжатия : С потерями
Размер потока : 300 Мбайт (11%)
Заголовок : Профессиональный (Двухголосый закадровый) Лицензия с DVD
Язык : Russian
Service kind : Complete Main
Default : Да
Forced : Да
Duration_Source : General_Duration
Аудио #2
Идентификатор : 3
Формат : AC-3
Формат/Информация : Audio Coding 3
Коммерческое название : Dolby Digital
Идентификатор кодека : A_AC3
Продолжительность : 1 ч. 33 м.
Вид битрейта : Постоянный
Битрейт : 192 Кбит/сек
Каналы : 2 канала
Channel layout : L R
Частота : 48, 0 КГц
Частота кадров : 31, 250 кадров/сек (1536 SPF)
Метод сжатия : С потерями
Размер потока : 129 Мбайт (5%)
Заголовок : Профессиональный (многоголосый закадровый) Первый канал, РЕН-ТВ
Язык : Russian
Service kind : Complete Main
Default : Нет
Forced : Нет
Duration_Source : General_Duration

Скриншоты для ознакомления



Все одноименные релизы в Клубе
Время раздачи: с 12: 00 до 00: 00 по МСК (до появления первых 3-5 скачавших), также могу уйти с раздачи на некоторое время в любой момент

Другие торренты по теме:

  • Nosferatu: the Wrath of Malachi / Вампиры (2003) [Ru / En] (1.0) Repack R.G. Catalyst скачать через торрент бесплатно
  • Раскрывая мистические тайны. Вампиры (2016) SATRip
  • Военная приемка. «Гранатометы. Боевые вампиры» (10.04.2016) SATRip
  • Вампиры / Vampyres (2015) DVDRip [VO]
  • Вампиры / Vampires (1998) BDRip [H.264 / 720р-LQ]
  • Вампиры / Vampires (1998) BDRip [H.265 / 1080p-LQ]
  • Вампиры / Vampires (1998) HDRip [H.264]
  • Закат: Вампиры в изгнании / Sundown: The Vampire in Retreat (1989) DVDRip [H.264]

  • Посетители, находящиеся в группе Гости, не могут оставлять комментарии в данной новости.