Подписывайся на наш канал в Telegram https://t.me/torrentok и получи доступ к торрентам без ограничений!

Львица / Rogue (2020) HDRip [MVO] торрент скачать бесплатно

Львица / Rogue (2020) HDRip [MVO]Производство: Великобритания, ЮАР/Grindstone Entertainment Group, Hassell Free Production, Mannequin Pictures
Жанр: Боевик
Режиссер: М. Дж. Бассетт

Актеры
Меган Фокс, Джессика Саттон, Филип Уинчестер, Каллиопе Джейн Тейлор, Ли-Энн Либенберг, Брэндон Оре, Грег Крик, Адам Дикон, Тамер Барджаг, Сисанда Хэнна

Описание

На одной из львиных ферм в Африке, где львов содержат, чтобы потом убить и продать по частям на чёрном рынке, происходит ЧП - львице удаётся сбежать и убить нескольких человек. Неподалёку от этого места отряд наёмников во главе с решительной Сэм высвобождает из заложников дочь губернатора и, уходя от многочисленных и хорошо вооружённых преследователей, находит убежище на той самой заброшенной львиной ферме.


Возраст: 18+ (зрителям, достигшим 18 лет. запрещено для детей)
Рейтинг MPAA: R (лицам до 17 лет обязательно присутствие взрослого)
Дата мировой премьеры: 28 августа 2020
Дата российской премьеры: 24 сентября 2020
Релиз от: maksciganov
Продолжительность: 01: 45: 59
Качество видео: HDRip
Перевод: Многоголосый любительский (@[email protected])
Субтитры: Нет
Видео: XVID, 720x304, 1759 kbps
Аудио: AC3, 2 ch, 192 kbps
General
Complete name : Rogue.2020_by_maksciganov.avi
Format : AVI
Format/Info : Audio Video Interleave
File size : 1.45 GiB
Duration : 1h 45mn
Overall bit rate : 1 960 Kbps
Writing application : VirtualDubMod 1.5.10.3 |www.virtualdub-fr.org|| (build 2550/release)
Writing library : VirtualDubMod build 2550/release
Video
ID : 0
Format : MPEG-4 Visual
Format profile : Advanced [email protected]
Format settings, BVOP : 1
Format settings, QPel : No
Format settings, GMC : No warppoints
Format settings, Matrix : Default (MPEG)
Codec ID : XVID
Codec ID/Hint : XviD
Duration : 1h 45mn
Bit rate : 1 759 Kbps
Width : 720 pixels
Height : 304 pixels
Display aspect ratio : 2.35: 1
Frame rate : 23.976 fps
Color space : YUV
Chroma subsampling : 4: 2: 0
Bit depth : 8 bits
Scan type : Progressive
Compression mode : Lossy
Bits/(Pixel*Frame) : 0.335
Stream size : 1.30 GiB (90%)
Writing library : XviD 1.2.1 (UTC 2008-12-04)
Audio
ID : 1
Format : AC-3
Format/Info : Audio Coding 3
Mode extension : CM (complete main)
Codec ID : 2000
Duration : 1h 45mn
Bit rate mode : Constant
Bit rate : 192 Kbps
Channel(s) : 2 channels
Channel positions : Front: L R
Sampling rate : 48.0 KHz
Bit depth : 16 bits
Compression mode : Lossy
Stream size : 146 MiB (10%)
Alignment : Split accross interleaves
Interleave, duration : 42 ms (1.00 video frame)
Interleave, preload duration : 500 ms

Скриншоты для ознакомления



Все одноименные релизы в Клубе
Время раздачи: 24/7 мультитрекер (до появления первых 3-5 скачавших)

Другие торренты по теме:

  • Львица / Rogue (2020) BDRip [H.264 / 1080p]
  • Львица / Rogue (2020) BDRip [H.264 / 720p] [MVO]
  • Львица / Rogue (2020) BDRemux [H.264 / 1080p] [MVO]
  • Львица / Rogue (2020) BDRemux [H.264 / 1080p] [MVO]

  • Посетители, находящиеся в группе Гости, не могут оставлять комментарии в данной новости.