Подписывайся на наш канал в Telegram https://t.me/torrentok и получи доступ к торрентам без ограничений!

Агент Ева / Ava (2020) WEB-DLRip [MVO] торрент скачать бесплатно

Агент Ева / Ava (2020) WEB-DLRip [MVO]Производство: США/Freckle Films, Voltage Pictures
Жанр: Боевик, триллер, драма, криминал, детектив
Режиссер: Тейт Тейлор

Актеры
Джессика Честейн, Джон Малкович, Джесс Вейкслер, Коммон, Джина Дэвис, Колин Фаррелл, Диана Сильверс, Йоан Гриффит, Джоан Чэнь, Janelle Feigley

Описание

Она умна, красива и чрезвычайно опасна. Перемещаясь по миру словно тень, агент по имени Ева в одиночку выполняет самые сложные задания своего руководства. Когда внезапно очередная спецоперация идет не по плану, и Ева решает выйти из игры, один из влиятельных боссов секретной службы открывает на неё охоту.


Возраст: 18+ (зрителям, достигшим 18 лет. запрещено для детей)
Рейтинг MPAA: R (лицам до 17 лет обязательно присутствие взрослого)
Дата мировой премьеры: 2 июля 2020
Дата российской премьеры: 20 августа 2020 , Вольга
Продолжительность: 01: 37: 09
Качество видео: WEB-DLRip
Перевод: Многоголосый любительский (AlphaProject)
Субтитры: Отсутствуют
Видео: Xvid, 688x288, 950 kbps
Аудио : MP3, 2 ch, 128 Kbps - Русский
Общее
Полное имя : Eva.(2020).WEB-DLRip.750.avi
Формат : AVI
Формат/Информация : Audio Video Interleave
Размер файла : 758 Мбайт
Продолжительность : 1 ч. 37 м.
Общий поток : 1090 Кбит/сек
Видео
Идентификатор : 0
Формат : MPEG-4 Visual
Профиль формата : Advanced [email protected]
Настройки формата : BVOP2
Параметр BVOP формата : 2
Параметр QPel формата : Нет
Параметр GMC формата : Без точки перехода
Параметр матрицы формата : Default (MPEG)
Идентификатор кодека : XVID
Идентификатор кодека/Подсказка : XviD
Продолжительность : 1 ч. 37 м.
Битрейт : 950 Кбит/сек
Ширина : 688 пикселей
Высота : 288 пикселей
Соотношение сторон : 2, 40: 1
Частота кадров : 23, 976 (24000/1001) кадра/сек
Цветовое пространство : YUV
Субдискретизация насыщенности : 4: 2: 0
Битовая глубина : 8 бит
Тип развёртки : Прогрессивная
Метод сжатия : С потерями
Бит/(Пиксели*Кадры) : 0.200
Размер потока : 660 Мбайт (87%)
Библиотека кодирования : XviD 69
Аудио
Идентификатор : 1
Формат : MPEG Audio
Версия формата : Version 1
Профиль формата : Layer 3
Настройки формата : Joint stereo
Идентификатор кодека : 55
Идентификатор кодека/Подсказка : MP3
Продолжительность : 55 м. 54 с.
Продолжительность оригинала : 1 ч. 36 м.
Вид битрейта : Постоянный
Битрейт : 128 Кбит/сек
Каналы : 2 канала
Частота : 48, 0 КГц
Метод сжатия : С потерями
Размер потока : 88, 7 Мбайт (12%)
Выравнивание : Соединение по промежуткам
Продолжительность промежутка : 24 мс. (0, 58 видеокадр)
Библиотека кодирования : LAME3.100
Скриншоты для ознакомления


Все одноименные релизы в Клубе
Время раздачи: 24/7 (круглосуточно) (до появления первых 3-5 скачавших)

Другие торренты по теме:

  • Агент Ева / Ava (2020) WEB-DLRip [AD]
  • Агент Ева / Ava (2020) WEB-DLRip [H.264 / 1080p-LQ] [AD]
  • Агент Ева / Ava (2020) WEB-DLRip [MVO]
  • Секретный агент / Unlocked (2017) WEB-DLRip
  • Агент / Поворот / Turn (2014) WEB-DLRip (сезон 1, серии 1-10 из 10) Lostfilm скачать через торрент бесплатно
  • Агент / Поворот / Turn (2015) WEB-DLRip (сезон 2, серии 1 из 10) Lostfilm (обновляемая) скачать через торрент бесплатно
  • Агент / Поворот / Turn (2015) WEB-DLRip (сезон 2, серии 1-2 из 10) BaibaKo (обновляемая) скачать через торрент бесплатно
  • Агент Икс / Agent X (2015) WEB-DLRip (сезон 1, серия 1 из 10) BaibaKo (обновляемая) скачать через торрент бесплатно

  • Посетители, находящиеся в группе Гости, не могут оставлять комментарии в данной новости.