Подписывайся на наш канал в Telegram https://t.me/torrentok и получи доступ к торрентам без ограничений!

Львица / Rogue (2020) BDRemux [H.264 / 1080p] [MVO] торрент скачать бесплатно

Львица / Rogue (2020) BDRemux [H.264 / 1080p] [MVO]Производство: Великобритания, ЮАР/Grindstone Entertainment Group, Hassell Free Production
Жанр: Боевик
Режиссер: М. Дж. Бассетт

Актеры
Меган Фокс, Джессика Саттон, Филип Уинчестер, Каллиопе Джейн Тейлор, Ли-Энн Либенберг

Описание

На одной из львиных ферм в Африке, где львов содержат, чтобы потом убить и продать по частям на чёрном рынке, происходит ЧП - львице удаётся сбежать и убить нескольких человек. Неподалёку от этого места отряд наёмников во главе с решительной Сэм высвобождает из заложников дочь губернатора и, уходя от многочисленных и хорошо вооружённых преследователей, находит убежище на той самой заброшенной львиной ферме.


Возраст: 18+ (зрителям, достигшим 18 лет. запрещено для детей)
Рейтинг MPAA: R (лицам до 17 лет обязательно присутствие взрослого)
Дата мировой премьеры: 28 августа 2020
Дата российской премьеры: 24 сентября 2020 , MEGOGO Distribution
Продолжительность: 01: 45: 59
Качество видео: BDRemux
Перевод: Многоголосый любительский
Субтитры: Английские
Видео: AVC/H.264, 1920x1080, ~34, 8 Mbps
Аудио 1: AC3, 2 ch, 256 Kbps - Русский (MVO, MUZOBOZ)
Аудио 2: DTS-HD MA, 6 ch, 3941 Kbps - Английский
Общее
Уникальный идентификатор : 277277551860492735103725353859476152556 (0xD099B6C8EE1E476F6F1BBD7F0D24E0EC)
Полное имя : C: Rogue.2020.BDRemux.1080p.mkv
Формат : Matroska
Версия формата : Version 4
Размер файла : 28, 9 Гбайт
Продолжительность : 1 ч. 45 м.
Режим общего битрейта : Переменный
Общий поток : 39, 0 Мбит/сек
Дата кодирования : UTC 2020-08-23 17: 31: 46
Программа кодирования : mkvmerge v49.0.0 (\'Sick Of Losing Soulmates\') 64-bit
Библиотека кодирования : libebml v1.4.0 + libmatroska v1.6.1
Attachments : Львица.jpg
Видео
Идентификатор : 1
Формат : AVC
Формат/Информация : Advanced Video Codec
Профиль формата : [email protected]
Настройки формата : CABAC/4 Ref Frames
Параметр CABAC формата : Да
Параметр RefFrames формата : 4 кадра
Идентификатор кодека : V_MPEG4/ISO/AVC
Продолжительность : 1 ч. 45 м.
Вид битрейта : Переменный
Битрейт : 34, 8 Мбит/сек
Максимальный битрейт : 37, 0 Мбит/сек
Ширина : 1 920 пикселей
Высота : 1 080 пикселей
Соотношение сторон : 16: 9
Режим частоты кадров : Постоянный
Частота кадров : 23, 976 (24000/1001) кадра/сек
Цветовое пространство : YUV
Субдискретизация насыщенности : 4: 2: 0
Битовая глубина : 8 бит
Тип развёртки : Прогрессивная
Бит/(Пиксели*Кадры) : 0.700
Размер потока : 25, 8 Гбайт (89%)
Язык : English
Default : Да
Forced : Нет
Аудио #1
Идентификатор : 2
Формат : AC-3
Формат/Информация : Audio Coding 3
Коммерческое название : Dolby Digital
Идентификатор кодека : A_AC3
Продолжительность : 1 ч. 45 м.
Вид битрейта : Постоянный
Битрейт : 256 Кбит/сек
Каналы : 2 канала
Channel layout : L R
Частота : 48, 0 КГц
Частота кадров : 31, 250 кадров/сек (1536 SPF)
Метод сжатия : С потерями
Размер потока : 194 Мбайт (1%)
Заголовок : MVO | MUZOBOZ
Язык : Russian
Service kind : Complete Main
Default : Да
Forced : Нет
Аудио #2
Идентификатор : 3
Формат : DTS XLL
Формат/Информация : Digital Theater Systems
Коммерческое название : DTS-HD Master Audio
Идентификатор кодека : A_DTS
Продолжительность : 1 ч. 45 м.
Вид битрейта : Переменный
Битрейт : 3 941 Кбит/сек
Каналы : 6 каналов
Channel layout : C L R Ls Rs LFE
Частота : 48, 0 КГц
Частота кадров : 93, 750 кадра/сек (512 SPF)
Битовая глубина : 24 бит
Метод сжатия : Без потерь
Размер потока : 2, 92 Гбайт (10%)
Язык : English
Default : Нет
Forced : Нет
Текст
Идентификатор : 4
Формат : UTF-8
Идентификатор кодека : S_TEXT/UTF8
Идентификатор кодека/Информация : UTF-8 Plain Text
Продолжительность : 1 ч. 38 м.
Битрейт : 51 бит/сек
Count of elements : 1321
Размер потока : 37, 0 Кбайт (0%)
Язык : English
Default : Нет
Forced : Нет
Меню
00: 00: 00.000 : en: Chapter 01
00: 04: 05.495 : en: Chapter 02
00: 10: 55.446 : en: Chapter 03
00: 22: 56.124 : en: Chapter 04
00: 29: 20.884 : en: Chapter 05
00: 35: 27.291 : en: Chapter 06
00: 42: 17.785 : en: Chapter 07
00: 48: 10.095 : en: Chapter 08
00: 55: 41.129 : en: Chapter 09
00: 59: 56.509 : en: Chapter 10
01: 06: 03.167 : en: Chapter 11
01: 11: 49.305 : en: Chapter 12
01: 19: 04.406 : en: Chapter 13
01: 21: 53.450 : en: Chapter 14
01: 29: 26.903 : en: Chapter 15
01: 34: 17.526 : en: Chapter 16

Скриншоты для ознакомления



Все одноименные релизы в Клубе
Время раздачи: 24/7 (до появления первых 3-5 скачавших)

Другие торренты по теме:

  • Львица / Rogue (2020) BDRip [H.264 / 1080p]
  • Львица / Rogue (2020) BDRip [H.264 / 720p] [MVO]
  • Львица / Rogue (2020) BDRemux [H.264 / 1080p] [MVO]
  • Львица / Rogue (2020) HDRip [MVO]

  • Посетители, находящиеся в группе Гости, не могут оставлять комментарии в данной новости.