Подписывайся на наш канал в Telegram https://t.me/torrentok и получи доступ к торрентам без ограничений!

Морские паразиты / Sea Fever (2019) BDRip [H.265 / 1080p] [10-bit] торрент скачать бесплатно

Морские паразиты / Sea Fever (2019) BDRip [H.265 / 1080p] [10-bit]Производство: Ирландия, США, Великобритания, Швеция, Бельгия/Bright Moving Pictures, Creativity Capital, Fantastic Films
Жанр: Ужасы, фантастика
Режиссер: Ниса Хардиман

Актеры
Конни Нильсен, Гермиона Корфилд, Дугрей Скотт, Олуэн Фуэре, Джек Хикки, Ардалан Эсмаили, Даг Малмберг, Эли Буаказе

Описание
Ирландия. Студентка Шеворн - настоящий интроверт. Девушка изучает морскую биологию, и ей интереснее смотреть в микроскоп, чем общаться с сокурсниками. Она отправляется проходить практику на небольшом рыболовецком судне, что сулит новые впечатления и богатый материал для научных исследований, хотя команда и не в восторге от пассажирки, так как её рыжие волосы являются плохой приметой.


Возраст: 18+ (зрителям, достигшим 18 лет. запрещено для детей)
Рейтинг MPAA: этот продукт не был классифицирован
Дата мировой премьеры: 5 сентября 2019
Дата российской премьеры: 1 августа 2020 , Кинологистика
Релиз от: mikos
Продолжительность: 01: 34: 14
Качество видео: BDRip
Перевод: Дублированный, авторский
Субтитры: Русские, английские
Видео: HEVC/H.265, 1920x804, ~9051 Kbps
Аудио 1: AC3, 6 ch, 384 Kbps - Русский, дублированный (iTunes)
Аудио 2: AC3, 6 ch, 448 Kbps - Русский, AVO (Визгунов)
Аудио 3: AC3, 6 ch, 640 Kbps - Английский
Общее
Уникальный идентификатор : 156453624777902953172806873940256461604 (0x75B3DF411417502F11AF757082519324)
Полное имя : R: Морские паразиты. 2019. 1080p. HEVC. 10bit..mkv
Формат : Matroska
Версия формата : Version 4/Version 2
Размер файла : 6, 93 Гбайт
Продолжительность : 1 ч. 34 м.
Общий поток : 10, 5 Мбит/сек
Дата кодирования : UTC 2020-08-23 08: 50: 25
Программа кодирования : mkvmerge v28.2.0 (\'The Awakening\') 64-bit
Библиотека кодирования : libebml v1.3.6 + libmatroska v1.4.9
Обложка : Yes
Attachments : cover.jpg
Видео
Идентификатор : 1
Формат : HEVC
Формат/Информация : High Efficiency Video Coding
Профиль формата : [email protected]@High
Идентификатор кодека : V_MPEGH/ISO/HEVC
Продолжительность : 1 ч. 34 м.
Битрейт : 9051 Кбит/сек
Ширина : 1920 пикселей
Высота : 804 пикселя
Соотношение сторон : 2, 40: 1
Режим частоты кадров : Постоянный
Частота кадров : 23, 976 (24000/1001) кадра/сек
Цветовое пространство : YUV
Субдискретизация насыщенности : 4: 2: 0
Битовая глубина : 10 бит
Бит/(Пиксели*Кадры) : 0.245
Размер потока : 5, 96 Гбайт (86%)
Заголовок : Рип от mikos
Библиотека кодирования : x265 3.2+5-354901970679: Windowsclang 8.0.164 bit 10bit
Настройки программы : cpuid=1111039/frame-threads=3/numa-pools=12/wpp/no-pmode/no-pme/no-psnr/no-ssim/log-level=3/input-csp=1/input-res=1920x804/interlace=0/total-frames=0/level-idc=41/high-tier=1/uhd-bd=0/ref=5/allow-non-conformance/no-repeat-t_heads/annexb/no-aud/no-hrd/info/hash=0/no-temporal-layers/open-gop/min-keyint=23/keyint=240/gop-lookahead=0/bframes=12/b-adapt=2/b-pyramid/bframe-bias=0/rc-lookahead=60/lookahead-slices=5/scenecut=40/radl=0/no-splice/no-intra-refresh/ctu=32/min-cu-size=8/no-rect/no-amp/max-tu-size=32/tu-inter-depth=1/tu-intra-depth=1/limit-tu=0/rdoq-level=0/dynamic-rd=0.00/no-ssim-rd/signhide/no-tskip/nr-intra=0/nr-inter=0/no-constrained-intra/strong-intra-smoothing/max-merge=3/limit-refs=1/no-limit-modes/me=2/subme=7/merange=57/temporal-mvp/no-frame-dup/no-hme/weightp/no-weightb/no-analyze-src-pics/deblock=-3: -3/no-sao/no-sao-non-deblock/rd=3/selective-sao=0/early-skip/rskip/no-fast-intra/no-tskip-fast/no-cu-lossless/b-intra/no-splitrd-skip/rdpenalty=0/psy-rd=2.00/psy-rdoq=0.00/no-rd-refine/no-lossless/cbqpoffs=0/crqpoffs=0/rc=crf/crf=15.5/qcomp=0.65/qpstep=4/stats-write=0/stats-read=0/vbv-maxrate=50000/vbv-bufsize=50000/vbv-init=0.9/crf-max=27.0/crf-min=0.0/ipratio=1.40/pbratio=1.30/aq-mode=2/aq-strength=1.00/no-cutree/zone-count=0/no-strict-cbr/qg-size=32/no-rc-grain/qpmax=69/qpmin=0/no-const-vbv/sar=1/overscan=0/videoformat=5/range=0/colorprim=1/transfer=1/colormatrix=1/chromaloc=0/display-window=0/cll=0, 0/min-luma=0/max-luma=1023/log2-max-poc-lsb=8/vui-timing-info/vui-hrd-info/slices=1/no-opt-qp-pps/no-opt-ref-list-length-pps/no-multi-pass-opt-rps/scenecut-bias=0.05/no-opt-cu-delta-qp/no-aq-motion/no-hdr/no-hdr-opt/no-dhdr10-opt/no-idr-recovery-sei/analysis-reuse-level=5/scale-factor=0/refine-intra=0/refine-inter=0/refine-mv=1/refine-ctu-distortion=0/no-limit-sao/ctu-info=0/no-lowpass-dct/refine-analysis-type=0/copy-pic=1/max-ausize-factor=1.0/no-dynamic-refine/no-single-sei/no-hevc-aq/no-svt/no-field/qp-adaptation-range=1.00
Язык : English
Default : Да
Forced : Нет
Цветовой диапазон : Limited
Основные цвета : BT.709
Характеристики трансфера : BT.709
Коэффициенты матрицы : BT.709
Аудио #1
Идентификатор : 2
Формат : AC-3
Формат/Информация : Audio Coding 3
Идентификатор кодека : A_AC3
Продолжительность : 1 ч. 34 м.
Вид битрейта : Постоянный
Битрейт : 384 Кбит/сек
Каналы : 6 каналов
Расположение каналов : Front: L C R, Side: L R, LFE
Частота : 48, 0 КГц
Частота кадров : 31, 250 кадров/сек (1536 SPF)
Битовая глубина : 16 бит
Метод сжатия : С потерями
Размер потока : 259 Мбайт (4%)
Заголовок : Dub (iTunes)
Язык : Russian
ServiceKind/String : Complete Main
Default : Да
Forced : Нет
Аудио #2
Идентификатор : 3
Формат : AC-3
Формат/Информация : Audio Coding 3
Идентификатор кодека : A_AC3
Продолжительность : 1 ч. 34 м.
Вид битрейта : Постоянный
Битрейт : 448 Кбит/сек
Каналы : 6 каналов
Расположение каналов : Front: L C R, Side: L R, LFE
Частота : 48, 0 КГц
Частота кадров : 31, 250 кадров/сек (1536 SPF)
Битовая глубина : 16 бит
Метод сжатия : С потерями
Размер потока : 302 Мбайт (4%)
Заголовок : AVO (Визгунов)
Язык : Russian
ServiceKind/String : Complete Main
Default : Нет
Forced : Нет
Аудио #3
Идентификатор : 4
Формат : AC-3
Формат/Информация : Audio Coding 3
Идентификатор кодека : A_AC3
Продолжительность : 1 ч. 34 м.
Вид битрейта : Постоянный
Битрейт : 640 Кбит/сек
Каналы : 6 каналов
Расположение каналов : Front: L C R, Side: L R, LFE
Частота : 48, 0 КГц
Частота кадров : 31, 250 кадров/сек (1536 SPF)
Битовая глубина : 16 бит
Метод сжатия : С потерями
Размер потока : 431 Мбайт (6%)
Заголовок : Original
Язык : English
ServiceKind/String : Complete Main
Default : Нет
Forced : Нет
Текст #1
Идентификатор : 5
Формат : UTF-8
Идентификатор кодека : S_TEXT/UTF8
Идентификатор кодека/Информация : UTF-8 Plain Text
Продолжительность : 1 ч. 26 м.
Битрейт : 68 бит/сек
ElementCount : 879
Размер потока : 43, 9 Кбайт (0%)
Заголовок : Full
Язык : Russian
Default : Да
Forced : Нет
Текст #2
Идентификатор : 6
Формат : UTF-8
Идентификатор кодека : S_TEXT/UTF8
Идентификатор кодека/Информация : UTF-8 Plain Text
Продолжительность : 1 ч. 34 м.
Битрейт : 37 бит/сек
ElementCount : 929
Размер потока : 25, 7 Кбайт (0%)
Заголовок : Full
Язык : English
Default : Нет
Forced : Нет
Меню
00: 00: 00.000 : : Chapter 01
00: 13: 49.620 : : Chapter 02
00: 33: 08.320 : : Chapter 03
00: 52: 35.110 : : Chapter 04
01: 11: 14.729 : : Chapter 05
01: 26: 41.571 : : Chapter 06

Другие торренты по теме:

  • Морские паразиты / Sea Fever (2019) BDRip [720p] ATV
  • Морские паразиты / Sea Fever (2019) WEB-DLRip [H.264 / 1080p-LQ] [MVO, AD]
  • Морские паразиты / Sea Fever (2019) BDRip [H.264 / 1080p] [DVO] [PR]
  • Морские паразиты / Sea Fever (2019) BDRemux [H.264 / 1080p]
  • Морские паразиты / Sea Fever (2019) BDRip [H.264 / 720p] [PR]
  • Морские паразиты / Sea Fever (2019) BDRip [H.264 / 1080p] [PR]
  • Морские паразиты / Sea Fever (2019) BDRip [H.264 / 1080p]
  • Морские паразиты / Sea Fever (2019) BDRip [H.264 / 720p]

  • Посетители, находящиеся в группе Гости, не могут оставлять комментарии в данной новости.