Подписывайся на наш канал в Telegram https://t.me/torrentok и получи доступ к торрентам без ограничений!

Час истины / Hour of Lead / The Vanished (2020) WEB-DLRip [H.264] торрент скачать бесплатно

Час истины / Hour of Lead / The Vanished (2020) WEB-DLRip [H.264]Производство: США/Adonais Productions, Benay\'s Birds Animals, Brickell Broadbridge International
Жанр: Боевик, триллер, детектив
Режиссер: Питер Фачинелли
Продюсер: Джефф Эллиотт, Брэндон Менчен, Билл Бромили

Актеры
Энн Хеч, Томас Джейн, Джейсон Патрик, Алекс Хейдон, Питер Фачинелли, Алексей Арчер, Кристофер Венте, Джон Д. Хикман, Митчелл Л. Джонсон, Кейкей Хейм

Описание

У супружеской пары, остановившейся в кемпинге на берегу реки, бесследно пропадает дочь. Полиция не в силах отыскать девочку, но муж с женой не остановятся ни перед чем, чтобы найти своего ребенка. Однако никто не догадывается, что за этим исчезновением скрывается страшная правда.


Дата мировой премьеры: 28 февраля 2020
Дата российской премьеры: 21 августа 2020, Вольга
Релиз от: karfagen1975 | NNMClub
Продолжительность: 01: 54: 42
Качество видео: WEB-DLRip
Перевод: Дублированный (iTunes)
Субтитры: Русские, английские
Видео: AVC/H.264, 1024x428, ~1950 Kbps
Аудио 1: AC3, 6 ch, 384 Kbps - Русский дубляж
Аудио 2: AC3, 6 ch, 384 Kbps - Английскийx264 info: frame I: 1369 Avg QP: 13.65 size: 65542
x264 info: frame P: 42463 Avg QP: 16.16 size: 20350
x264 info: frame B: 121334 Avg QP: 17.46 size: 5983
------------------------------------------------------------------------------------------------
General
Unique ID : 280048461562252756677408812287789561275 (0xD2AF5F2E4CCD42CB675773E04176F5BB)
Complete name : The.Vanished.2020.WEB-DLRip.H264.NNMClub.mkv
Format : Matroska
Format version : Version 4
File size : 2.18 GiB
Duration : 1 h 54 min
Overall bit rate : 2 723 kb/s
Movie name : The.Vanished.2020.WEB-DLRip.H264.NNMClub
Encoded date : UTC 2020-08-23 05: 51: 09
Writing application : mkvmerge v48.0.0 (\'Fortress Around Your Heart\') 64-bit
Writing library : libebml v1.4.0 + libmatroska v1.6.0
Video
ID : 1
Format : AVC
Format/Info : Advanced Video Codec
Format profile : [email protected]
Format settings : CABAC/12 Ref Frames
Format settings, CABAC : Yes
Format settings, Reference : 12 frames
Codec ID : V_MPEG4/ISO/AVC
Duration : 1 h 54 min
Bit rate : 1 953 kb/s
Width : 1 024 pixels
Height : 428 pixels
Display aspect ratio : 2.40: 1
Frame rate mode : Constant
Frame rate : 24.000 FPS
Color space : YUV
Chroma subsampling : 4: 2: 0
Bit depth : 8 bits
Scan type : Progressive
Bits/(Pixel*Frame) : 0.186
Stream size : 1.56 GiB (72%)
Title : The.Vanished.2020.WEB-DLRip.H264.NNMClub
Writing library : x264 core 161 r3015 4c2aafd
Encoding settings : cabac=1/ref=12/deblock=1: -3: -3/analyse=0x3: 0x133/me=umh/subme=11/psy=1/psy_rd=1.05: 0.00/mixed_ref=1/me_range=48/chroma_me=1/trellis=2/8x8dct=1/cqm=0/deadzone=21, 11/fast_pskip=0/chroma_qp_offset=-2/threads=4/lookahead_threads=1/sliced_threads=0/nr=0/decimate=0/interlaced=0/bluray_compat=0/constrained_intra=0/bframes=9/b_pyramid=2/b_adapt=2/b_bias=0/direct=3/weightb=1/open_gop=0/weightp=2/keyint=240/keyint_min=24/scenecut=40/intra_refresh=0/rc_lookahead=60/rc=2pass/mbtree=0/bitrate=1953/ratetol=1.0/qcomp=0.60/qpmin=0/qpmax=69/qpstep=4/cplxblur=20.0/qblur=0.5/vbv_maxrate=50000/vbv_bufsize=62500/nal_hrd=none/filler=0/ip_ratio=1.40/pb_ratio=1.30/aq=1: 1.00
Language : English
Default : Yes
Forced : No
Audio #1
ID : 2
Format : AC-3
Format/Info : Audio Coding 3
Commercial name : Dolby Digital
Codec ID : A_AC3
Duration : 1 h 54 min
Bit rate mode : Constant
Bit rate : 384 kb/s
Channel(s) : 6 channels
Channel layout : L R C LFE Ls Rs
Sampling rate : 48.0 kHz
Frame rate : 31.250 FPS (1536 SPF)
Compression mode : Lossy
Stream size : 315 MiB (14%)
Title : DUB-iTunes
Language : Russian
Service kind : Complete Main
Default : No
Forced : No
Audio #2
ID : 3
Format : AC-3
Format/Info : Audio Coding 3
Commercial name : Dolby Digital
Codec ID : A_AC3
Duration : 1 h 54 min
Bit rate mode : Constant
Bit rate : 384 kb/s
Channel(s) : 6 channels
Channel layout : L R C LFE Ls Rs
Sampling rate : 48.0 kHz
Frame rate : 31.250 FPS (1536 SPF)
Compression mode : Lossy
Stream size : 315 MiB (14%)
Title : Original
Language : English
Service kind : Complete Main
Default : No
Forced : No
Text #1
ID : 4
Format : UTF-8
Codec ID : S_TEXT/UTF8
Codec ID/Info : UTF-8 Plain Text
Duration : 1 h 51 min
Bit rate : 79 b/s
Count of elements : 1266
Stream size : 65.3 KiB (0%)
Title : Full
Language : Russian
Default : No
Forced : No
Text #2
ID : 5
Format : UTF-8
Codec ID : S_TEXT/UTF8
Codec ID/Info : UTF-8 Plain Text
Duration : 1 h 49 min
Bit rate : 50 b/s
Count of elements : 1336
Stream size : 40.4 KiB (0%)
Title : Full
Language : English
Default : No
Forced : No
Menu
00: 00: 00.000 : : Глава 1
00: 04: 42.958 : : Глава 2
00: 13: 35.958 : : Глава 3
00: 18: 31.374 : : Глава 4
00: 23: 03.374 : : Глава 5
00: 29: 45.707 : : Глава 6
00: 37: 53.748 : : Глава 7
00: 48: 15.581 : : Глава 8
00: 56: 11.997 : : Глава 9
01: 05: 33.247 : : Глава 10
01: 16: 48.413 : : Глава 11
01: 25: 14.038 : : Глава 12
01: 36: 12.496 : : Глава 13
01: 41: 48.662 : : Глава 14
Скриншоты для ознакомления



Все одноименные релизы в Клубе
Время раздачи: 24/7 (круглосуточно) (до появления первых 3-5 скачавших)

Другие торренты по теме:

  • Час истины / Hour of Lead (2020) WEB-DL [H.264 / 1080p-LQ]
  • Час истины / Hour of Lead (2020) WEB-DLRip

  • Посетители, находящиеся в группе Гости, не могут оставлять комментарии в данной новости.