Подписывайся на наш канал в Telegram https://t.me/torrentok и получи доступ к торрентам без ограничений!

На грани смерти / Pushing Dead (2016) WEB-DL [H.264 / 1080p] [MVO] торрент скачать бесплатно

На грани смерти / Pushing Dead (2016) WEB-DL [H.264 / 1080p] [MVO]Производство: США, Bugsby Films
Жанр: драма, комедия
Режиссер: Том Э. Браун

Актеры
Джеймс Родэй, Робин Вайгерт, Дэнни Гловер, Кэнди Александр, Том Райли, Джерри МакДэниэл, Табита Пейджен, Дженни О’Хара, Damon Kirsche, Mark Rafael Truitt

Описание

ВИЧ-инфицированный писатель, испытывающий финансовые сложности, случайно кладёт на банковский счёт сто долларов и лишается медицинской страховки из-за слишком высокого уровня дохода. Рутинная ошибка бюрократической машины оставляет его без жизненно необходимых лекарств. Спасти его может только чудо.


Релиз от: FocusX
Продолжительность: 01: 50: 38
Качество видео: WEB-DL
Перевод: Многоголосый профессиональный (FocusX)
Субтитры: Отсутствуют
Видео: AVC/H.264, 1920х800, 7422 kbps
Аудио 1: AC3, 6 ch, 640 kbps, русский
Аудио 2: AC3, 6 ch, 640 kbps, английский
Общее
Уникальный идентификатор : 221285937845725745960687612294085343442 (0xA67A1F13DDD6A1BEB989D99E97C5F8D2)
Полное имя : Pushing.Dead.WEB-DL.1080p.FocusX.mkv
Формат : Matroska
Версия формата : Version 4
Размер файла : 6, 86 Гбайт
Продолжительность : 1 ч. 50 м.
Режим общего битрейта : Постоянный
Общий поток : 8879 Кбит/сек
Название фильма : Pushing Dead @ FocusX
Дата кодирования : UTC 2019-09-17 13: 41: 08
Программа кодирования : mkvmerge v8.1.0 (\'Psychedelic Postcard\') 64bit
Библиотека кодирования : libebml v1.3.1 + libmatroska v1.4.2
Видео
Идентификатор : 1
Формат : AVC
Формат/Информация : Advanced Video Codec
Профиль формата : [email protected]
Настройки формата : CABAC/4 Ref Frames
Параметр CABAC формата : Да
Параметр RefFrames формата : 4 кадра
Идентификатор кодека : V_MPEG4/ISO/AVC
Продолжительность : 1 ч. 50 м.
Вид битрейта : Постоянный
Битрейт : 7422 Кбит/сек
Номинальный битрейт : 10000 Кбит/сек
Ширина : 1920 пикселей
Высота : 800 пикселей
Соотношение сторон : 2, 40: 1
Режим частоты кадров : Постоянный
Частота кадров : 23, 976 (24000/1001) кадра/сек
Цветовое пространство : YUV
Субдискретизация насыщенности : 4: 2: 0
Битовая глубина : 8 бит
Тип развёртки : Прогрессивная
Бит/(Пиксели*Кадры) : 0.202
Размер потока : 5, 74 Гбайт (84%)
Default : Да
Forced : Нет
Цветовой диапазон : Limited
Основные цвета : BT.709
Характеристики трансфера : BT.709
Коэффициенты матрицы : BT.709
Аудио #1
Идентификатор : 2
Формат : AC-3
Формат/Информация : Audio Coding 3
Коммерческое название : Dolby Digital
Идентификатор кодека : A_AC3
Продолжительность : 1 ч. 50 м.
Вид битрейта : Постоянный
Битрейт : 640 Кбит/сек
Каналы : 6 каналов
ChannelLayout : L R C LFE Ls Rs
Частота : 48, 0 КГц
Частота кадров : 31, 250 кадров/сек (1536 SPF)
Метод сжатия : С потерями
Размер потока : 506 Мбайт (7%)
Заголовок : MVO FocusX
Язык : Russian
ServiceKind/String : Complete Main
Default : Да
Forced : Нет
Аудио #2
Идентификатор : 3
Формат : AC-3
Формат/Информация : Audio Coding 3
Коммерческое название : Dolby Digital
Идентификатор кодека : A_AC3
Продолжительность : 1 ч. 50 м.
Вид битрейта : Постоянный
Битрейт : 640 Кбит/сек
Каналы : 6 каналов
ChannelLayout : L R C LFE Ls Rs
Частота : 48, 0 КГц
Частота кадров : 31, 250 кадров/сек (1536 SPF)
Метод сжатия : С потерями
Размер потока : 506 Мбайт (7%)
Язык : English
ServiceKind/String : Complete Main
Default : Нет
Forced : Нет

Скриншоты для ознакомления



Все одноименные релизы в Клубе
Время раздачи: 24/7 (мультитрекерная раздача)

Другие торренты по теме:

  • Женщины на грани / Смерти нет (2013-2014) WEB-DL [H.264 / 1080p-LQ] (сезон 1, серии 1-26 из 26) скачать через торрент бесплатно

  • Посетители, находящиеся в группе Гости, не могут оставлять комментарии в данной новости.