Подписывайся на наш канал в Telegram https://t.me/torrentok и получи доступ к торрентам без ограничений!

Бобро поржаловать! / Bienvenue chez les Chtis (2008) BDRip [H.264 / 720p] торрент скачать бесплатно

Бобро поржаловать! / Bienvenue chez les Chtis (2008) BDRip [H.264 / 720p]Производство: Франция/Pathé Renn Productions, Hirsch, Les Productions du Chicon
Жанр: мелодрама, комедия
Режиссер: Дэни Бун

Актеры
Кад Мерад Дэни Бун Энн Маривин Зоэ Феликс Филипп Дюкен Ги Леклюиз Лин Рено Мишель Галабрю Стефан Фрейсс Фред Персонн

Описание

Филипп Абрамс, начальник почтового отделения на юге Франции в Салон-де-Прованс делает всё для того, чтобы быть переведённым по службе в Кассис, райский уголок близ Марселя. Однако все его старания и мечты идут крахом, когда за мелкое служебное нарушение он получает дисциплинарный перевод на два года в Берг на Севере, близ Дюнкерка.
Для людей с Юга Франции, наполненных стереотипами, Север — это ужас, полярный регион, населённый грубыми существами, разговаривающими на непонятном языке. К своему великому изумлению, Филипп Абрамс обнаруживает там очаровательное место, тёплую команду, гостеприимных людей и приобретает новых друзей.


Возраст: 16+ (зрителям, достигшим 16 лет)
Рейтинг MPAA: G (нет возрастных ограничений)
Продолжительность: 01: 46: 01
Качество видео: BDRip
Перевод: Дублированный, двухголосый профессиональный
Субтитры: русские, английские
Видео: AVC/H.264, 1280x546, ~5500 kbps
Аудио 1: AC3, 6 ch, 448 kbps, Русский (DUB)
Аудио 2: AC3, 6 ch, 448 kbps, Русский (DVO)
Аудио 3: AC3, 6 ch, 448 kbps, Французский
Общее
Уникальный идентификатор : 187793430499154852223814319680994446526 (0x8D47B2F93FFD572282AB9843C5E48CBE)
Полное имя : F: CINEMABienvenue.chez.les.Ch\'tis.2008.BDRip.720p.mkv
Формат : Matroska
Версия формата : Version 4
Размер файла : 5, 11 Гбайт
Продолжительность : 1 ч. 47 м.
Общий поток : 6 833 Кбит/сек
Название фильма : Bienvenue chez les Ch\'tis (2008)
Дата кодирования : UTC 2020-08-17 10: 44: 42
Программа кодирования : mkvmerge v8.2.0 (\'World of Adventure\') 64bit
Библиотека кодирования : libebml v1.3.1 + libmatroska v1.4.2
Видео
Идентификатор : 1
Формат : AVC
Формат/Информация : Advanced Video Codec
Профиль формата : [email protected]
Настройки формата : CABAC/9 Ref Frames
Параметр CABAC формата : Да
Параметр RefFrames формата : 9 кадров
Идентификатор кодека : V_MPEG4/ISO/AVC
Продолжительность : 1 ч. 46 м.
Битрейт : 5 550 Кбит/сек
Ширина : 1 280 пикселей
Высота : 546 пикселей
Соотношение сторон : 2, 35: 1
Режим частоты кадров : Постоянный
Частота кадров : 24, 000 кадра/сек
Цветовое пространство : YUV
Субдискретизация насыщенности : 4: 2: 0
Битовая глубина : 8 бит
Тип развёртки : Прогрессивная
Бит/(Пиксели*Кадры) : 0.331
Размер потока : 4, 11 Гбайт (80%)
Заголовок : Bienvenue chez les Ch\'tis
Библиотека кодирования : x264 core 130 r2273 b3065e6
Настройки программы : cabac=1/ref=9/deblock=1: -3: -3/analyse=0x3: 0x133/me=umh/subme=11/psy=1/psy_rd=1.00: 0.20/mixed_ref=1/me_range=48/chroma_me=1/trellis=2/8x8dct=1/cqm=0/deadzone=21, 11/fast_pskip=0/chroma_qp_offset=-3/threads=6/lookahead_threads=1/sliced_threads=0/nr=0/decimate=0/interlaced=0/bluray_compat=0/constrained_intra=0/bframes=8/b_pyramid=2/b_adapt=2/b_bias=0/direct=3/weightb=1/open_gop=0/weightp=2/keyint=240/keyint_min=23/scenecut=40/intra_refresh=0/rc=2pass/mbtree=0/bitrate=5550/ratetol=1.0/qcomp=0.60/qpmin=0/qpmax=69/qpstep=4/cplxblur=20.0/qblur=0.5/ip_ratio=1.40/pb_ratio=1.30/aq=1: 1.00
Язык : French
Default : Да
Forced : Нет
Аудио #1
Идентификатор : 2
Формат : AC-3
Формат/Информация : Audio Coding 3
Коммерческое название : Dolby Digital
Идентификатор кодека : A_AC3
Продолжительность : 1 ч. 46 м.
Вид битрейта : Постоянный
Битрейт : 448 Кбит/сек
Каналы : 6 каналов
Channel layout : L R C LFE Ls Rs
Частота : 48, 0 КГц
Частота кадров : 31, 250 кадров/сек (1536 SPF)
Метод сжатия : С потерями
Размер потока : 340 Мбайт (6%)
Заголовок : DUB
Язык : Russian
Service kind : Complete Main
Default : Да
Forced : Нет
Аудио #2
Идентификатор : 3
Формат : AC-3
Формат/Информация : Audio Coding 3
Коммерческое название : Dolby Digital
Идентификатор кодека : A_AC3
Продолжительность : 1 ч. 46 м.
Вид битрейта : Постоянный
Битрейт : 448 Кбит/сек
Каналы : 6 каналов
Channel layout : L R C LFE Ls Rs
Частота : 48, 0 КГц
Частота кадров : 31, 250 кадров/сек (1536 SPF)
Метод сжатия : С потерями
Размер потока : 340 Мбайт (6%)
Заголовок : DVO
Язык : Russian
Service kind : Complete Main
Default : Нет
Forced : Нет
Аудио #3
Идентификатор : 4
Формат : AC-3
Формат/Информация : Audio Coding 3
Коммерческое название : Dolby Digital
Идентификатор кодека : A_AC3
Продолжительность : 1 ч. 46 м.
Вид битрейта : Постоянный
Битрейт : 448 Кбит/сек
Каналы : 6 каналов
Channel layout : L R C LFE Ls Rs
Частота : 48, 0 КГц
Частота кадров : 31, 250 кадров/сек (1536 SPF)
Метод сжатия : С потерями
Размер потока : 340 Мбайт (6%)
Заголовок : Original
Язык : French
Service kind : Complete Main
Default : Нет
Forced : Нет
Текст #1
Идентификатор : 5
Формат : UTF-8
Идентификатор кодека : S_TEXT/UTF8
Идентификатор кодека/Информация : UTF-8 Plain Text
Продолжительность : 1 ч. 40 м.
Битрейт : 122 бит/сек
Count of elements : 1695
Размер потока : 90, 6 Кбайт (0%)
Язык : Russian
Default : Нет
Forced : Нет
Текст #2
Идентификатор : 6
Формат : UTF-8
Идентификатор кодека : S_TEXT/UTF8
Идентификатор кодека/Информация : UTF-8 Plain Text
Продолжительность : 1 ч. 46 м.
Битрейт : 48 бит/сек
Count of elements : 1527
Размер потока : 37, 7 Кбайт (0%)
Язык : English
Default : Нет
Forced : Нет
Меню
00: 00: 00.000 : : Chapter 01
00: 02: 29.416 : : Chapter 02
00: 06: 10.957 : : Chapter 03
00: 13: 27.000 : : Chapter 04
00: 20: 45.208 : : Chapter 05
00: 26: 46.500 : : Chapter 06
00: 30: 28.041 : : Chapter 07
00: 39: 33.500 : : Chapter 08
00: 44: 30.333 : : Chapter 09
00: 46: 17.041 : : Chapter 10
00: 52: 02.625 : : Chapter 11
00: 58: 46.708 : : Chapter 12
01: 05: 46.500 : : Chapter 13
01: 11: 50.500 : : Chapter 14
01: 14: 09.707 : : Chapter 15
01: 22: 15.582 : : Chapter 16
01: 28: 04.416 : : Chapter 17
01: 32: 28.750 : : Chapter 18
01: 38: 24.625 : : Chapter 19
01: 40: 42.208 : : Chapter 20

Скриншоты для ознакомления



Все одноименные релизы в Клубе
Время раздачи: c 5 до 19 мск (до появления первых 3-5 скачавших)

Другие торренты по теме:

  • Бобро поржаловать! / Bienvenue chez les Chtis (2008) BDRip скачать через торрент бесплатно
  • Бобро поржаловать! / Bienvenue chez les Chtis (2008) BDRemux (1080p) скачать через торрент бесплатно
  • Бобро Поржаловать / Bienvenue chez les Chtis (2008) HDRip
  • Бобро поржаловать! / Bienvenue chez les Chtis (2008) BDRip [720p] ATV
  • Бобро Поржаловать / Bienvenue chez les Chtis (2008) [1080p] BDRip

  • Посетители, находящиеся в группе Гости, не могут оставлять комментарии в данной новости.