Подписывайся на наш канал в Telegram https://t.me/torrentok и получи доступ к торрентам без ограничений!

Карты, деньги, два ствола / Lock, Stock and Two Smoking Barrels (1998) BDRip [H.264 / 720p] торрент скачать бесплатно

Карты, деньги, два ствола / Lock, Stock and Two Smoking Barrels (1998) BDRip [H.264 / 720p]Производство: Великобритания/Summit Entertainment, The Steve Tisch Company, SKA Films
Жанр: комедия, криминал
Режиссер: Гай Ричи

Актеры
Джейсон Флеминг Декстер Флетчер Ник Моран Джейсон Стэйтем Стивен Макинтош Николас Роу Ник Марк Чарльз Форбс Винни Джонс Ленни МакЛин

Описание

Четверо молодых парней накопили каждый по 25 тысяч фунтов, чтобы один из них мог сыграть в карты с опытным шулером и матерым преступником, известным по кличке Гарри-Топор. Парень в итоге проиграл 500 тысяч, на уплату долга ему дали неделю.
В противном случае и ему и его спонсорам каждый день будут отрубать по пальцу, а потом... Чтобы выйти из положения, ребята решили ограбить бандитов, решивших ограбить трех ботаников, выращивающих марихуану для местного наркобарона. Но на этом приключения четверки не заканчиваются...


Возраст: 18+ (зрителям, достигшим 18 лет. запрещено для детей)
Рейтинг MPAA: R (лицам до 17 лет обязательно присутствие взрослого)
Продолжительность: 01: 47: 23
Качество видео: BDRip
Перевод: Многоголосый профессиональный, авторский
Субтитры: русские, английские
Видео: AVC/H.264, 1278x692, ~14.2 mbps
Аудио 1: AC3, 6 ch, 448 kbps, Русский (MVO Neoclassica)(ненормативная лексика)
Аудио 2: AC3, 6 ch, 448 kbps, Русский (MVO Киномания)
Аудио 3: AC3, 6 ch, 448 kbps, Русский (MVO Позитив-Мультимедиа)
Аудио 4: AC3, 2 ch, 192 kbps, Русский (MVO НТВ)
Аудио 5: AC3, 2 ch, 192 kbps, Русский (MVO РЕН ТВ)
Аудио 6: AC3, 6 ch, 448 kbps, Русский (AVO Д.Пучков Goblin)(ненормативная лексика)
Аудио 7: AC3, 6 ch, 448 kbps, Русский (AVO Л. Володарский)
Аудио 8: AC3, 6 ch, 448 kbps, Русский (AVO М. Яроцкий)(ненормативная лексика)
Аудио 9: AC3, 6 ch, 448 kbps, Русский (AVO Ю.Сербин)
Аудио 10: AC3, 6 ch, 448 kbps, Русский (AVO А. Кашкин)
Аудио 11: AC3, 6 ch, 448 kbps, Английский
Общее
Уникальный идентификатор : 214133351305657305053325950904683236878 (0xA11895559576472DB6760CB92D308E0E)
Полное имя : F: CINEMALock.Stock.and.Two.Smoking.Barrels.1998.BDRip.720p.mkv
Формат : Matroska
Версия формата : Version 4
Размер файла : 14, 0 Гбайт
Продолжительность : 1 ч. 47 м.
Общий поток : 18, 6 Мбит/сек
Название фильма : Lock, Stock and Two Smoking Barrels (1998)
Дата кодирования : UTC 2020-08-23 05: 20: 54
Программа кодирования : mkvmerge v8.2.0 (\'World of Adventure\') 64bit
Библиотека кодирования : libebml v1.3.1 + libmatroska v1.4.2
Видео
Идентификатор : 1
Формат : AVC
Формат/Информация : Advanced Video Codec
Профиль формата : [email protected]
Настройки формата : CABAC/9 Ref Frames
Параметр CABAC формата : Да
Параметр RefFrames формата : 9 кадров
Идентификатор кодека : V_MPEG4/ISO/AVC
Продолжительность : 1 ч. 47 м.
Битрейт : 14, 2 Мбит/сек
Ширина : 1 278 пикселей
Высота : 692 пикселя
Соотношение сторон : 1, 85: 1
Режим частоты кадров : Постоянный
Частота кадров : 23, 976 (24000/1001) кадра/сек
Цветовое пространство : YUV
Субдискретизация насыщенности : 4: 2: 0
Битовая глубина : 8 бит
Тип развёртки : Прогрессивная
Бит/(Пиксели*Кадры) : 0.670
Размер потока : 10, 6 Гбайт (76%)
Заголовок : Lock, Stock and Two Smoking Barrels
Библиотека кодирования : x264 core 152 r2851kMod ba24899
Настройки программы : cabac=1/ref=9/deblock=1: -2: -2/analyse=0x3: 0x113/me=umh/subme=11/psy=1/fade_compensate=0.00/psy_rd=1.02: 0.06/mixed_ref=1/me_range=48/chroma_me=1/trellis=2/8x8dct=1/cqm=0/deadzone=21, 11/fast_pskip=0/chroma_qp_offset=-3/threads=12/lookahead_threads=3/sliced_threads=0/nr=0/decimate=0/interlaced=0/bluray_compat=0/constrained_intra=0/bframes=11/b_pyramid=2/b_adapt=2/b_bias=0/direct=3/weightb=1/open_gop=0/weightp=2/keyint=240/keyint_min=23/scenecut=40/intra_refresh=0/rc_lookahead=40/rc=2pass/mbtree=0/bitrate=14200/ratetol=1.0/qcomp=0.60/qpmin=0/qpmax=39/qpstep=4/cplxblur=20.0/qblur=0.5/vbv_maxrate=50000/vbv_bufsize=62500/nal_hrd=none/filler=0/ip_ratio=1.40/pb_ratio=1.30/aq=2: 0.90
Язык : English
Default : Да
Forced : Нет
Цветовой диапазон : Limited
Основные цвета : BT.709
Характеристики трансфера : BT.709
Коэффициенты матрицы : BT.709
Аудио #1
Идентификатор : 2
Формат : AC-3
Формат/Информация : Audio Coding 3
Коммерческое название : Dolby Digital
Идентификатор кодека : A_AC3
Продолжительность : 1 ч. 47 м.
Вид битрейта : Постоянный
Битрейт : 448 Кбит/сек
Каналы : 6 каналов
Channel layout : L R C LFE Ls Rs
Частота : 48, 0 КГц
Частота кадров : 31, 250 кадров/сек (1536 SPF)
Метод сжатия : С потерями
Размер потока : 344 Мбайт (2%)
Заголовок : MVO Neoclassica
Язык : Russian
Service kind : Complete Main
Default : Нет
Forced : Нет
Аудио #2
Идентификатор : 3
Формат : AC-3
Формат/Информация : Audio Coding 3
Коммерческое название : Dolby Digital
Идентификатор кодека : A_AC3
Продолжительность : 1 ч. 47 м.
Вид битрейта : Постоянный
Битрейт : 448 Кбит/сек
Каналы : 6 каналов
Channel layout : L R C LFE Ls Rs
Частота : 48, 0 КГц
Частота кадров : 31, 250 кадров/сек (1536 SPF)
Метод сжатия : С потерями
Размер потока : 344 Мбайт (2%)
Заголовок : MVO Киномания
Язык : Russian
Service kind : Complete Main
Default : Да
Forced : Нет
Аудио #3
Идентификатор : 4
Формат : AC-3
Формат/Информация : Audio Coding 3
Коммерческое название : Dolby Digital
Идентификатор кодека : A_AC3
Продолжительность : 1 ч. 46 м.
Вид битрейта : Постоянный
Битрейт : 448 Кбит/сек
Каналы : 6 каналов
Channel layout : L R C LFE Ls Rs
Частота : 48, 0 КГц
Частота кадров : 31, 250 кадров/сек (1536 SPF)
Метод сжатия : С потерями
Размер потока : 341 Мбайт (2%)
Заголовок : MVO Позитив-Мультимедиа
Язык : Russian
Service kind : Complete Main
Default : Нет
Forced : Нет
Аудио #4
Идентификатор : 5
Формат : AC-3
Формат/Информация : Audio Coding 3
Коммерческое название : Dolby Digital
Идентификатор кодека : A_AC3
Продолжительность : 1 ч. 47 м.
Вид битрейта : Постоянный
Битрейт : 192 Кбит/сек
Каналы : 2 канала
Channel layout : L R
Частота : 48, 0 КГц
Частота кадров : 31, 250 кадров/сек (1536 SPF)
Метод сжатия : С потерями
Размер потока : 147 Мбайт (1%)
Заголовок : MVO НТВ
Язык : Russian
Service kind : Complete Main
Default : Нет
Forced : Нет
Аудио #5
Идентификатор : 6
Формат : AC-3
Формат/Информация : Audio Coding 3
Коммерческое название : Dolby Digital
Идентификатор кодека : A_AC3
Продолжительность : 1 ч. 47 м.
Вид битрейта : Постоянный
Битрейт : 192 Кбит/сек
Каналы : 2 канала
Channel layout : L R
Частота : 48, 0 КГц
Частота кадров : 31, 250 кадров/сек (1536 SPF)
Метод сжатия : С потерями
Размер потока : 147 Мбайт (1%)
Заголовок : MVO РЕН ТВ
Язык : Russian
Service kind : Complete Main
Default : Нет
Forced : Нет
Аудио #6
Идентификатор : 7
Формат : AC-3
Формат/Информация : Audio Coding 3
Коммерческое название : Dolby Digital
Идентификатор кодека : A_AC3
Продолжительность : 1 ч. 47 м.
Вид битрейта : Постоянный
Битрейт : 448 Кбит/сек
Каналы : 6 каналов
Channel layout : L R C LFE Ls Rs
Частота : 48, 0 КГц
Частота кадров : 31, 250 кадров/сек (1536 SPF)
Метод сжатия : С потерями
Размер потока : 344 Мбайт (2%)
Заголовок : AVO Д. Пучков
Язык : Russian
Service kind : Complete Main
Default : Нет
Forced : Нет
Аудио #7
Идентификатор : 8
Формат : AC-3
Формат/Информация : Audio Coding 3
Коммерческое название : Dolby Digital
Идентификатор кодека : A_AC3
Продолжительность : 1 ч. 47 м.
Вид битрейта : Постоянный
Битрейт : 448 Кбит/сек
Каналы : 6 каналов
Channel layout : L R C LFE Ls Rs
Частота : 48, 0 КГц
Частота кадров : 31, 250 кадров/сек (1536 SPF)
Метод сжатия : С потерями
Размер потока : 344 Мбайт (2%)
Заголовок : AVO Л. Володарский
Язык : Russian
Service kind : Complete Main
Default : Нет
Forced : Нет
Аудио #8
Идентификатор : 9
Формат : AC-3
Формат/Информация : Audio Coding 3
Коммерческое название : Dolby Digital
Идентификатор кодека : A_AC3
Продолжительность : 1 ч. 47 м.
Вид битрейта : Постоянный
Битрейт : 448 Кбит/сек
Каналы : 6 каналов
Channel layout : L R C LFE Ls Rs
Частота : 48, 0 КГц
Частота кадров : 31, 250 кадров/сек (1536 SPF)
Метод сжатия : С потерями
Размер потока : 344 Мбайт (2%)
Заголовок : AVO М. Яроцкий
Язык : Russian
Service kind : Complete Main
Default : Нет
Forced : Нет
Аудио #9
Идентификатор : 10
Формат : AC-3
Формат/Информация : Audio Coding 3
Коммерческое название : Dolby Digital
Идентификатор кодека : A_AC3
Продолжительность : 1 ч. 47 м.
Вид битрейта : Постоянный
Битрейт : 448 Кбит/сек
Каналы : 6 каналов
Channel layout : L R C LFE Ls Rs
Частота : 48, 0 КГц
Частота кадров : 31, 250 кадров/сек (1536 SPF)
Метод сжатия : С потерями
Размер потока : 344 Мбайт (2%)
Заголовок : AVO Ю.Сербин
Язык : Russian
Service kind : Complete Main
Default : Нет
Forced : Нет
Аудио #10
Идентификатор : 11
Формат : AC-3
Формат/Информация : Audio Coding 3
Коммерческое название : Dolby Digital
Идентификатор кодека : A_AC3
Продолжительность : 1 ч. 47 м.
Вид битрейта : Постоянный
Битрейт : 448 Кбит/сек
Каналы : 6 каналов
Channel layout : L R C LFE Ls Rs
Частота : 48, 0 КГц
Частота кадров : 31, 250 кадров/сек (1536 SPF)
Метод сжатия : С потерями
Размер потока : 344 Мбайт (2%)
Заголовок : AVO А. Кашкин
Язык : Russian
Service kind : Complete Main
Default : Нет
Forced : Нет
Аудио #11
Идентификатор : 12
Формат : AC-3
Формат/Информация : Audio Coding 3
Коммерческое название : Dolby Digital
Идентификатор кодека : A_AC3
Продолжительность : 1 ч. 47 м.
Вид битрейта : Постоянный
Битрейт : 448 Кбит/сек
Каналы : 6 каналов
Channel layout : L R C LFE Ls Rs
Частота : 48, 0 КГц
Частота кадров : 31, 250 кадров/сек (1536 SPF)
Метод сжатия : С потерями
Размер потока : 344 Мбайт (2%)
Заголовок : Original
Язык : English
Service kind : Complete Main
Default : Нет
Forced : Нет
Текст #1
Идентификатор : 13
Формат : UTF-8
Идентификатор кодека : S_TEXT/UTF8
Идентификатор кодека/Информация : UTF-8 Plain Text
Продолжительность : 1 ч. 42 м.
Битрейт : 111 бит/сек
Count of elements : 1270
Размер потока : 83, 2 Кбайт (0%)
Язык : Russian
Default : Нет
Forced : Нет
Текст #2
Идентификатор : 14
Формат : UTF-8
Идентификатор кодека : S_TEXT/UTF8
Идентификатор кодека/Информация : UTF-8 Plain Text
Продолжительность : 1 ч. 42 м.
Битрейт : 70 бит/сек
Count of elements : 1515
Размер потока : 52, 9 Кбайт (0%)
Язык : English
Default : Нет
Forced : Нет
Меню
00: 00: 00.000 : : Chapter 01
00: 05: 00.000 : : Chapter 02
00: 10: 00.000 : : Chapter 03
00: 15: 00.000 : : Chapter 04
00: 20: 00.000 : : Chapter 05
00: 25: 00.000 : : Chapter 06
00: 30: 00.000 : : Chapter 07
00: 35: 00.000 : : Chapter 08
00: 40: 00.000 : : Chapter 09
00: 45: 00.000 : : Chapter 10
00: 50: 00.000 : : Chapter 11
00: 55: 00.000 : : Chapter 12
01: 00: 00.000 : : Chapter 13
01: 05: 00.000 : : Chapter 14
01: 10: 00.000 : : Chapter 15
01: 15: 00.000 : : Chapter 16
01: 20: 00.000 : : Chapter 17
01: 25: 00.000 : : Chapter 18
01: 30: 00.000 : : Chapter 19
01: 35: 00.000 : : Chapter 20
01: 40: 00.000 : : Chapter 21
01: 45: 00.000 : : Chapter 22

Другие торренты по теме:

  • Карты, деньги, два ствола / Lock, Stock and Two Smoking Barrels (1998) BDRip [H.264 / 720p]
  • Карты, деньги, два ствола / Lock, Stock and Two Smoking Barrels (1998) BDRip [H.264]
  • Карты, деньги, два ствола / Lock, Stock and Two Smoking Barrels (1998) BDRemux [1080p]
  • Советские мафии. Карты, деньги, кровь (2015.09.16) SATRip скачать через торрент бесплатно
  • Карты, деньги и слова / Три ямы, два гвоздя и ствол / Three Holes, Two Brads, and a Smoking Gun (2015) WEB-DLRip
  • Карты, деньги и два ствола / Lock, Stock and Two Smoking Barrels (1998) BDRip [H.264 / 1080p]
  • Карты, деньги и два ствола / Lock, Stock and Two Smoking Barrels (1998) HDRip [H.264] [MP4|1024x556]
  • Карты, деньги, два ствола / Lock, Stock and Two Smoking Barrels (1998) [H.265 / 1080p] [10-bit]

  • Посетители, находящиеся в группе Гости, не могут оставлять комментарии в данной новости.