Подписывайся на наш канал в Telegram https://t.me/torrentok и получи доступ к торрентам без ограничений!

Форрест Гамп / Forrest Gump (1994) BDRip [H.264 / 720p] торрент скачать бесплатно

Форрест Гамп / Forrest Gump (1994) BDRip [H.264 / 720p]Производство: США/Paramount Pictures
Жанр: драма, мелодрама, комедия, история, военный
Режиссер: Роберт Земекис

Актеры
Том Хэнкс, Робин Райт, Салли Филд, Гэри Синиз, Майкелти Уильямсон, Майкл Коннер Хэмпфри, Ханна Р. Холл, Сэм Андерсон, Шиван Фэллон, Ребекка Уильямс

Описание

От лица главного героя Форреста Гампа, слабоумного безобидного человека с благородным и открытым сердцем, рассказывается история его необыкновенной жизни.
Фантастическим образом превращается он в известного футболиста, героя войны, преуспевающего бизнесмена. Он становится миллиардером, но остается таким же бесхитростным, глупым и добрым. Форреста ждет постоянный успех во всем, а он любит девочку, с которой дружил в детстве, но взаимность приходит слишком поздно.


Возраст: 12+ (зрителям, достигшим 12 лет)
Рейтинг MPAA: PG-13 (детям до 13 лет просмотр нежелателен)
Продолжительность: 02: 22: 08
Качество видео: BDRip
Перевод: Многоголосый профессиональный, авторский
Субтитры: русские, английские
Видео: AVC/H.264, 1280x536, ~7000 kbps
Аудио 1: AC3, 2 ch, 192 kbps, Русский (MVO CTC/PTP)
Аудио 2: AC3, 6 ch, 640 kbps, Русский (MVO Позитив-Мультимедия)
Аудио 3: AC3, 6 ch, 448 kbps, Русский (MVO Киномания)
Аудио 4: AC3, 6 ch, 640 kbps, Русский (MVO Медиа-Комплекс)
Аудио 5: AC3, 6 ch, 384 kbps, Русский (MVO НТВ+)
Аудио 6: AC3, 2 ch, 192 kbps, Русский (MVO Премьер Видео фильм)
Аудио 7: AC3, 6 ch, 448 kbps, Русский (MVO Universal Pictures)
Аудио 8: AC3, 2 ch, 192 kbps, Русский (AVO Сергей Визгунов)
Аудио 9: AC3, 6 ch, 640 kbps, Русский (AVO Андрей Гаврилов)
Аудио 10: AC3, 2 ch, 192 kbps, Русский (AVO Василий Горчаков)
Аудио 11: AC3, 2 ch, 192 kbps, Русский (AVO Александр Кашкин)
Аудио 12: AC3, 6 ch, 640 kbps, Русский (AVO Юрий Сербин)
Аудио 13: AC3, 6 ch, 640 kbps, Английский
Общее
Уникальный идентификатор : 170418030125634186641068249473273412558 (0x803551982C9A690CB9BC7CC82E35BBCE)
Полное имя : F: CINEMAForrest.Gump.1994.BDRip 720p.mkv
Формат : Matroska
Версия формата : Version 4
Размер файла : 12, 4 Гбайт
Продолжительность : 2 ч. 22 м.
Общий поток : 12, 4 Мбит/сек
Название фильма : Forrest Gump (1994)
Дата кодирования : UTC 2020-08-23 03: 18: 14
Программа кодирования : mkvmerge v8.2.0 (\'World of Adventure\') 64bit
Библиотека кодирования : libebml v1.3.1 + libmatroska v1.4.2
Видео
Идентификатор : 1
Формат : AVC
Формат/Информация : Advanced Video Codec
Профиль формата : [email protected]
Настройки формата : CABAC/12 Ref Frames
Параметр CABAC формата : Да
Параметр RefFrames формата : 12 кадров
Идентификатор кодека : V_MPEG4/ISO/AVC
Продолжительность : 2 ч. 22 м.
Битрейт : 7 000 Кбит/сек
Ширина : 1 280 пикселей
Высота : 536 пикселей
Соотношение сторон : 2, 40: 1
Режим частоты кадров : Постоянный
Частота кадров : 23, 976 (24000/1001) кадра/сек
Цветовое пространство : YUV
Субдискретизация насыщенности : 4: 2: 0
Битовая глубина : 8 бит
Тип развёртки : Прогрессивная
Бит/(Пиксели*Кадры) : 0.426
Размер потока : 6, 95 Гбайт (56%)
Заголовок : Forrest Gump
Библиотека кодирования : x264 core 152 r2851kMod ba24899
Настройки программы : cabac=1/ref=12/deblock=1: -3: -3/analyse=0x3: 0x113/me=umh/subme=10/psy=1/fade_compensate=0.00/psy_rd=1.05: 0.10/mixed_ref=1/me_range=48/chroma_me=1/trellis=2/8x8dct=1/cqm=0/deadzone=21, 11/fast_pskip=0/chroma_qp_offset=-3/threads=12/lookahead_threads=3/sliced_threads=0/nr=0/decimate=0/interlaced=0/bluray_compat=0/constrained_intra=0/bframes=11/b_pyramid=2/b_adapt=2/b_bias=0/direct=3/weightb=1/open_gop=0/weightp=2/keyint=240/keyint_min=23/scenecut=40/intra_refresh=0/rc=2pass/mbtree=0/bitrate=7000/ratetol=1.0/qcomp=0.63/qpmin=0/qpmax=39/qpstep=4/cplxblur=20.0/qblur=0.5/ip_ratio=1.40/pb_ratio=1.30/aq=3: 0.80
Язык : English
Default : Да
Forced : Нет
Цветовой диапазон : Limited
Основные цвета : BT.709
Характеристики трансфера : BT.709
Коэффициенты матрицы : BT.709
Аудио #1
Идентификатор : 2
Формат : AC-3
Формат/Информация : Audio Coding 3
Коммерческое название : Dolby Digital
Идентификатор кодека : A_AC3
Продолжительность : 2 ч. 22 м.
Вид битрейта : Постоянный
Битрейт : 192 Кбит/сек
Каналы : 2 канала
Channel layout : L R
Частота : 48, 0 КГц
Частота кадров : 31, 250 кадров/сек (1536 SPF)
Метод сжатия : С потерями
Размер потока : 195 Мбайт (2%)
Заголовок : MVO СТС/РТР
Язык : Russian
Service kind : Complete Main
Default : Да
Forced : Нет
Аудио #2
Идентификатор : 3
Формат : AC-3
Формат/Информация : Audio Coding 3
Коммерческое название : Dolby Digital
Идентификатор кодека : A_AC3
Продолжительность : 2 ч. 22 м.
Вид битрейта : Постоянный
Битрейт : 640 Кбит/сек
Каналы : 6 каналов
Channel layout : L R C LFE Ls Rs
Частота : 48, 0 КГц
Частота кадров : 31, 250 кадров/сек (1536 SPF)
Метод сжатия : С потерями
Размер потока : 651 Мбайт (5%)
Заголовок : MVO Позитив-Мультимедия
Язык : Russian
Service kind : Complete Main
Default : Нет
Forced : Нет
Аудио #3
Идентификатор : 4
Формат : AC-3
Формат/Информация : Audio Coding 3
Коммерческое название : Dolby Digital
Идентификатор кодека : A_AC3
Продолжительность : 2 ч. 22 м.
Вид битрейта : Постоянный
Битрейт : 448 Кбит/сек
Каналы : 6 каналов
Channel layout : L R C LFE Ls Rs
Частота : 48, 0 КГц
Частота кадров : 31, 250 кадров/сек (1536 SPF)
Метод сжатия : С потерями
Размер потока : 456 Мбайт (4%)
Заголовок : MVO Киномания
Язык : Russian
Service kind : Complete Main
Default : Нет
Forced : Нет
Аудио #4
Идентификатор : 5
Формат : AC-3
Формат/Информация : Audio Coding 3
Коммерческое название : Dolby Digital
Идентификатор кодека : A_AC3
Продолжительность : 2 ч. 22 м.
Вид битрейта : Постоянный
Битрейт : 640 Кбит/сек
Каналы : 6 каналов
Channel layout : L R C LFE Ls Rs
Частота : 48, 0 КГц
Частота кадров : 31, 250 кадров/сек (1536 SPF)
Метод сжатия : С потерями
Размер потока : 651 Мбайт (5%)
Заголовок : MVO Медиа-Комплекс
Язык : Russian
Service kind : Complete Main
Default : Нет
Forced : Нет
Аудио #5
Идентификатор : 6
Формат : AC-3
Формат/Информация : Audio Coding 3
Коммерческое название : Dolby Digital
Идентификатор кодека : A_AC3
Продолжительность : 2 ч. 22 м.
Вид битрейта : Постоянный
Битрейт : 384 Кбит/сек
Каналы : 6 каналов
Channel layout : L R C LFE Ls Rs
Частота : 48, 0 КГц
Частота кадров : 31, 250 кадров/сек (1536 SPF)
Метод сжатия : С потерями
Размер потока : 390 Мбайт (3%)
Заголовок : MVO НТВ+
Язык : Russian
Service kind : Complete Main
Default : Нет
Forced : Нет
Аудио #6
Идентификатор : 7
Формат : AC-3
Формат/Информация : Audio Coding 3
Коммерческое название : Dolby Digital
Идентификатор кодека : A_AC3
Продолжительность : 2 ч. 22 м.
Вид битрейта : Постоянный
Битрейт : 192 Кбит/сек
Каналы : 2 канала
Channel layout : L R
Частота : 48, 0 КГц
Частота кадров : 31, 250 кадров/сек (1536 SPF)
Метод сжатия : С потерями
Размер потока : 195 Мбайт (2%)
Заголовок : MVO Премьер Видео фильм
Язык : Russian
Service kind : Complete Main
Default : Нет
Forced : Нет
Аудио #7
Идентификатор : 8
Формат : AC-3
Формат/Информация : Audio Coding 3
Коммерческое название : Dolby Digital
Идентификатор кодека : A_AC3
Продолжительность : 2 ч. 22 м.
Вид битрейта : Постоянный
Битрейт : 448 Кбит/сек
Каналы : 6 каналов
Channel layout : L R C LFE Ls Rs
Частота : 48, 0 КГц
Частота кадров : 31, 250 кадров/сек (1536 SPF)
Метод сжатия : С потерями
Размер потока : 456 Мбайт (4%)
Заголовок : MVO Universal Pictures
Язык : Russian
Service kind : Complete Main
Default : Нет
Forced : Нет
Аудио #8
Идентификатор : 9
Формат : AC-3
Формат/Информация : Audio Coding 3
Коммерческое название : Dolby Digital
Идентификатор кодека : A_AC3
Продолжительность : 2 ч. 22 м.
Вид битрейта : Постоянный
Битрейт : 192 Кбит/сек
Каналы : 2 канала
Channel layout : L R
Частота : 48, 0 КГц
Частота кадров : 31, 250 кадров/сек (1536 SPF)
Метод сжатия : С потерями
Размер потока : 195 Мбайт (2%)
Заголовок : AVO Сергей Визгунов
Язык : Russian
Service kind : Complete Main
Default : Нет
Forced : Нет
Аудио #9
Идентификатор : 10
Формат : AC-3
Формат/Информация : Audio Coding 3
Коммерческое название : Dolby Digital
Идентификатор кодека : A_AC3
Продолжительность : 2 ч. 22 м.
Вид битрейта : Постоянный
Битрейт : 640 Кбит/сек
Каналы : 6 каналов
Channel layout : L R C LFE Ls Rs
Частота : 48, 0 КГц
Частота кадров : 31, 250 кадров/сек (1536 SPF)
Метод сжатия : С потерями
Размер потока : 651 Мбайт (5%)
Заголовок : AVO Андрей Гаврилов
Язык : Russian
Service kind : Complete Main
Default : Нет
Forced : Нет
Аудио #10
Идентификатор : 11
Формат : AC-3
Формат/Информация : Audio Coding 3
Коммерческое название : Dolby Digital
Идентификатор кодека : A_AC3
Продолжительность : 2 ч. 22 м.
Вид битрейта : Постоянный
Битрейт : 192 Кбит/сек
Каналы : 2 канала
Channel layout : L R
Частота : 48, 0 КГц
Частота кадров : 31, 250 кадров/сек (1536 SPF)
Метод сжатия : С потерями
Размер потока : 195 Мбайт (2%)
Заголовок : AVO Василий Горчаков
Язык : Russian
Service kind : Complete Main
Default : Нет
Forced : Нет
Аудио #11
Идентификатор : 12
Формат : AC-3
Формат/Информация : Audio Coding 3
Коммерческое название : Dolby Digital
Идентификатор кодека : A_AC3
Продолжительность : 2 ч. 22 м.
Вид битрейта : Постоянный
Битрейт : 192 Кбит/сек
Каналы : 2 канала
Channel layout : L R
Частота : 48, 0 КГц
Частота кадров : 31, 250 кадров/сек (1536 SPF)
Метод сжатия : С потерями
Размер потока : 195 Мбайт (2%)
Заголовок : AVO Александр Кашкин
Язык : Russian
Service kind : Complete Main
Default : Нет
Forced : Нет
Аудио #12
Идентификатор : 13
Формат : AC-3
Формат/Информация : Audio Coding 3
Коммерческое название : Dolby Digital
Идентификатор кодека : A_AC3
Продолжительность : 2 ч. 22 м.
Вид битрейта : Постоянный
Битрейт : 640 Кбит/сек
Каналы : 6 каналов
Channel layout : L R C LFE Ls Rs
Частота : 48, 0 КГц
Частота кадров : 31, 250 кадров/сек (1536 SPF)
Метод сжатия : С потерями
Размер потока : 651 Мбайт (5%)
Заголовок : AVO Юрий Сербин
Язык : Russian
Service kind : Complete Main
Default : Нет
Forced : Нет
Аудио #13
Идентификатор : 14
Формат : AC-3
Формат/Информация : Audio Coding 3
Коммерческое название : Dolby Digital
Идентификатор кодека : A_AC3
Продолжительность : 2 ч. 22 м.
Вид битрейта : Постоянный
Битрейт : 640 Кбит/сек
Каналы : 6 каналов
Channel layout : L R C LFE Ls Rs
Частота : 48, 0 КГц
Частота кадров : 31, 250 кадров/сек (1536 SPF)
Метод сжатия : С потерями
Размер потока : 651 Мбайт (5%)
Язык : English
Service kind : Complete Main
Default : Нет
Forced : Нет
Текст #1
Идентификатор : 15
Формат : UTF-8
Идентификатор кодека : S_TEXT/UTF8
Идентификатор кодека/Информация : UTF-8 Plain Text
Продолжительность : 2 ч. 10 м.
Битрейт : 98 бит/сек
Count of elements : 1989
Размер потока : 94, 3 Кбайт (0%)
Язык : Russian
Default : Нет
Forced : Нет
Текст #2
Идентификатор : 16
Формат : UTF-8
Идентификатор кодека : S_TEXT/UTF8
Идентификатор кодека/Информация : UTF-8 Plain Text
Продолжительность : 2 ч. 10 м.
Битрейт : 63 бит/сек
Count of elements : 1542
Размер потока : 60, 9 Кбайт (0%)
Язык : English
Default : Нет
Forced : Нет
Текст #3
Идентификатор : 17
Формат : UTF-8
Идентификатор кодека : S_TEXT/UTF8
Идентификатор кодека/Информация : UTF-8 Plain Text
Продолжительность : 2 ч. 11 м.
Битрейт : 65 бит/сек
Count of elements : 1595
Размер потока : 62, 9 Кбайт (0%)
Заголовок : SDH
Язык : English
Default : Нет
Forced : Нет
Меню
00: 00: 00.000 : en: I\'m Forrest...Forrest Gump
00: 06: 43.570 : en: Mama
00: 12: 24.577 : en: Like Peas and Carrots
00: 19: 56.946 : en: Run Forrest Run!
00: 31: 13.705 : en: Private Gump
00: 40: 40.188 : en: Lieutenant Dan
00: 44: 18.114 : en: My Best Good Friend
00: 56: 34.474 : en: Wounded in the Buttocks
01: 03: 32.267 : en: You\'re My Girl
01: 13: 34.076 : en: National Celebrity
01: 17: 02.827 : en: Happy New Year
01: 23: 52.277 : en: Shrimp Boat Captain
01: 34: 59.944 : en: Bubba Gump
01: 38: 55.596 : en: Mamma\'s Trip to Heaven
01: 43: 52.893 : en: Jenny Comes Home
01: 51: 28.307 : en: A Little Run
01: 58: 54.711 : en: Forrest Meets Forrest
02: 04: 48.564 : en: Beloved Mother, Wife and Friend
02: 15: 25.200 : en: Credits

Скриншоты для ознакомления



Все одноименные релизы в Клубе
Время раздачи: c 5 до 19 мск (до появления первых 3-5 скачавших)

Другие торренты по теме:

  • Форрест Гамп / Forrest Gump (1994) BDRip [H.264] скачать через торрент бесплатно
  • Форрест Гамп / Forrest Gump (1994) HDTVRip [H.264] скачать через торрент бесплатно
  • Форрест Гамп / Forrest Gump (1994) BDRip [H.264 / 1080p] скачать через торрент бесплатно
  • Форрест Гамп / Forrest Gump (1994) BDRip [H.264 / 1080p]
  • Форрест Гамп / Forrest Gump (1994) BDRip [H.265 / 1080p]
  • Форрест Гамп / Forrest Gump (1994) BDRip [H.265 / 1080p-LQ] [MVO]
  • Форрест Гамп / Forrest Gump (1994) UHD BDRemux [H.265 / 2160p] [4K, HDR, 10-bit]
  • Форрест Гамп / Forrest Gump (1994) UHD BDRemux [H.265 / 2160p] [4K, HDR, Dolby Vision, 10-bit]

  • Посетители, находящиеся в группе Гости, не могут оставлять комментарии в данной новости.