Подписывайся на наш канал в Telegram https://t.me/torrentok и получи доступ к торрентам без ограничений!

Игра в браслетах (1998) DVDRip торрент скачать бесплатно

Игра в браслетах (1998) DVDRipПроизводство: Россия/Киностудия им. М. Горького
Жанр: Драма, детектив
Режиссер: Никита Хубов

Актеры
Казбек Бокоев, Леван Джакели, Александр Граве, Елизавета Олиферова, Георгий Оманидзе, Юрий Потемкин, Сергей Тарамаев, Оксана Тимановская, Олег Мошкаркин, Вахтанг Рухая

Описание

Наручники - это игра. В них - искушение судьбы. Чувство безграничной свободы. В них глубоко спрятано тайное желание преступить закон. В них же - раскаяние. Сладость покаяния. А потому - вседозволенность.


Возраст: 18+ (зрителям, достигшим 18 лет. запрещено для детей)
Релиз от: Alexandr
Продолжительность: 01: 41: 12
Качество видео: DVDRip
Субтитры: Отсутствуют
Видео: Xvid, 720x546 (4: 3), ~1740 Kbps
Аудио: AC3, 2 ch, 192 Kbps - русский
Общее
Полное имя : D: Игра в браслетах (1998).by.Alexandr.avi
Формат : AVI
Формат/Информация : Audio Video Interleave
Профиль формата : OpenDML
Размер файла : 1, 37 Гбайт
Продолжительность : 1 ч. 41 м.
Общий поток : 1 944 Кбит/сек
Программа кодирования : Lavf58.29.100
Видео
Идентификатор : 0
Формат : MPEG-4 Visual
Профиль формата : Advanced [email protected]
Настройки формата : BVOP2
Параметр BVOP формата : 2
Параметр QPel формата : Нет
Параметр GMC формата : Без точки перехода
Параметр матрицы формата : Default (MPEG)
Идентификатор кодека : XVID
Идентификатор кодека/Подсказка : XviD
Продолжительность : 1 ч. 41 м.
Битрейт : 1 739 Кбит/сек
Ширина : 720 пикселей
Высота : 546 пикселей
Соотношение сторон : 4: 3
Частота кадров : 25, 000 кадров/сек
Цветовое пространство : YUV
Субдискретизация насыщенности : 4: 2: 0
Битовая глубина : 8 бит
Тип развёртки : Прогрессивная
Метод сжатия : С потерями
Бит/(Пиксели*Кадры) : 0.177
Размер потока : 1, 23 Гбайт (89%)
Библиотека кодирования : XviD 67
Аудио
Идентификатор : 1
Формат : AC-3
Формат/Информация : Audio Coding 3
Коммерческое название : Dolby Digital
Идентификатор кодека : 2000
Продолжительность : 1 ч. 41 м.
Вид битрейта : Постоянный
Битрейт : 192 Кбит/сек
Каналы : 2 канала
Channel layout : L R
Частота : 48, 0 КГц
Частота кадров : 31, 250 кадров/сек (1536 SPF)
Битовая глубина : 16 бит
Метод сжатия : С потерями
Размер потока : 139 Мбайт (10%)
Выравнивание : Соединение по промежуткам
Продолжительность промежутка : 32 мс. (0, 80 видеокадр)
Service kind : Complete Main

Скриншоты для ознакомления



Все одноименные релизы в Клубе
Время раздачи: 24/7 (круглосуточно) (до появления первых 3-5 скачавших)

Другие торренты по теме:

  • Артур Осколков | Игра из Тени (2020) [FB2]
  • Marvel’s Spider-Man GOTY / Человек-паук: Издание Игра года (2018) [PS4] [EUR] 5.05 [HEN] [License / 1.17 / DLC] [Ru / Multi]
  • Академия SEO | SEO Игра. Самая масштабная тренинг-игра в СНГ (2017) PCRec
  • Л.В. Былеева, В.А. Таборко | Игра.. Игра! (1988) [PDF]
  • Игра в классики / Hopscotch (1980) DVDRip [H.264] [VO]
  • Игра без правил (1965) DVBRip
  • Что Где Когда Осенняя серия игр. Игра 4 (2014.09.27) SATRip
  • Настольная игра | Munchkin / Манчкин (Fallout) (2014) [JPEG, DOC]

  • Посетители, находящиеся в группе Гости, не могут оставлять комментарии в данной новости.