Подписывайся на наш канал в Telegram https://t.me/torrentok и получи доступ к торрентам без ограничений!

Агент Лев / Le lion (2020) WEB-DLRip [UKR] торрент скачать бесплатно

Агент Лев / Le lion (2020) WEB-DLRip [UKR]Производство: Франция, Бельгия/Monkey Pack Films, TF1 Studio, Pathé
Жанр: Комедия
Режиссер: Людовик Кольбо-Жюстен

Актеры
Дани Бун, Филипп Катрин, Энни Серра, Самуэль Жуи, Софи Вербек, Кароль Брана, Бенуа Петре, Аксель Устун, Матью Ларду, Оливье Са

Описание

Психиатр пытается понять, в чём проблема его нового пациента: тот утверждает, что он секретный шпион международного уровня по кличке Агент Лев. Но когда на глазах доктора похищают его невесту, ему ничего не остаётся, как обратиться за помощью к этому странному спецагенту.


Возраст: 12+ (зрителям, достигшим 12 лет)
Дата мировой премьеры: 14 января 2020
Дата премьеры в России: 6 августа 2020

Продолжительность: 01: 35: 24
Качество видео: WEB-DLRip
Перевод: украинский дубляж
Язык озвучки: Украинский
Субтитры: Отсутствуют
Видео: Xvid, 720x304, 1974 kbps
Аудио: AC3, 2 ch, 192 Kbps - Украинский
Общее
Полное имя : Le.lion.(2020).WEB-DLRip.Ukr.avi
Формат : AVI
Формат/Информация : Audio Video Interleave
Размер файла : 1, 45 Гбайт
Продолжительность : 1 ч. 35 м.
Общий поток : 2177 Кбит/сек
Видео
Идентификатор : 0
Формат : MPEG-4 Visual
Профиль формата : Advanced [email protected]
Настройки формата : BVOP1
Параметр BVOP формата : 1
Параметр QPel формата : Нет
Параметр GMC формата : Без точки перехода
Параметр матрицы формата : Default (MPEG)
Идентификатор кодека : XVID
Идентификатор кодека/Подсказка : XviD
Продолжительность : 1 ч. 35 м.
Битрейт : 1974 Кбит/сек
Ширина : 720 пикселей
Высота : 304 пикселя
Соотношение сторон : 2, 35: 1
Частота кадров : 24, 000 кадра/сек
Цветовое пространство : YUV
Субдискретизация насыщенности : 4: 2: 0
Битовая глубина : 8 бит
Тип развёртки : Прогрессивная
Метод сжатия : С потерями
Бит/(Пиксели*Кадры) : 0.376
Размер потока : 1, 32 Гбайт (91%)
Библиотека кодирования : XviD 1.2.1 (UTC 2008-12-04)
Аудио
Идентификатор : 1
Формат : AC-3
Формат/Информация : Audio Coding 3
Коммерческое название : Dolby Digital
Идентификатор кодека : 2000
Продолжительность : 1 ч. 35 м.
Вид битрейта : Постоянный
Битрейт : 192 Кбит/сек
Каналы : 2 канала
Channel layout : L R
Частота : 48, 0 КГц
Частота кадров : 31, 250 кадров/сек (1536 SPF)
Битовая глубина : 16 бит
Метод сжатия : С потерями
Размер потока : 131 Мбайт (9%)
Выравнивание : Соединение по промежуткам
Продолжительность промежутка : 32 мс. (0, 77 видеокадр)
ServiceKind/String : Complete Main
Скриншоты для ознакомления



Все одноименные релизы в Клубе Время раздачи: 24/7 (мультитрекерная раздача)

Другие торренты по теме:

  • Агент Лев / Le lion (2020) WEB-DLRip [MVO] [AD]
  • Агент Лев / Le lion (2020) WEB-DLRip [H.264 / 1080p-LQ] [MVO] [AD]
  • Агент Лев / Le lion (2020) WEB-DLRip [MVO]
  • Агент Лев / Le lion (2020) WEB-DL [H.264 / 1080p-LQ] [MVO]
  • Агент Лев / Le lion (2020) WEB-DLRip [H.264] [MVO]
  • Агент Лев / Le lion (2020) WEB-DL [H.264 / 1080p-LQ] [UKR, FRA]

  • Посетители, находящиеся в группе Гости, не могут оставлять комментарии в данной новости.