Подписывайся на наш канал в Telegram https://t.me/torrentok и получи доступ к торрентам без ограничений!

Грань невинности (Лето, портрет 19-летнего) / Xia tian 19 sui de xiao xiang / Edge of Innocence (2017) WEBRip [H.264 / 1080р-LQ] [MVO] торрент скачать бесплатно

Грань невинности (Лето, портрет 19-летнего) / Xia tian 19 sui de xiao xiang / Edge of Innocence (2017) WEBRip [H.264 / 1080р-LQ] [MVO]Производство: Китай, Desen International Media
Жанр: Мелодрама, детектив, триллер
Режиссер: Чан Цзюн-Чи
Продюсер: Ю Вэньцянь, Ann An, Xu Cai

Актеры
Хуан Цзытао, Ян Цайюй, Ли Мэн, Кэлвин Ту, Чан Кочу, Саманта Ко, Стэнли Фун, Чи-ин Чу, Блэк

Описание

Попав в аварию на мотоцикле, Кан Цяо оказывается в больнице. Изнывая от скуки, парень целыми днями следит за красивой девушкой, которая живёт в доме напротив. Однажды в дождливую ночь он видит, как девушка совершает убийство. Выйдя из больницы, Цяо не может противиться желанию быть ближе к таинственной незнакомке, поэтому он устраивается в фирму, где та работает.


Продолжительность: 01: 43: 01
Качество видео: WEBRip
Перевод: Многоголосый любительский (STEPonee), двухголосый любительский (SOFTBOX)
Субтитры: Английские, китайские - hardsub (неотключаемые)
Видео: AVC/H.264, 1920x804, ~1344 kbps
Аудио 1: AC3, 2 ch, 192 Кbps | Русский (MVO, STEPonee)
Аудио 2: AC3, 2 ch, 192 Кbps | Русский (DVO, SOFTBOX)
Аудио 3: AAC, 2 ch, 128 Кbps | Китайский
Общее
Уникальный идентификатор : 83615960943981825555456732558391241032 (0x3EE7D92A4254ECB56475DE9870AFE948)
Полное имя : C: Gran.nevinnosti.2017.WEB-DL.1080p.mkv
Формат : Matroska
Версия формата : Version 4
Размер файла : 1, 33 Гбайт
Продолжительность : 1 ч. 43 м.
Общий поток : 1 854 Кбит/сек
Дата кодирования : UTC 2020-08-23 03: 09: 11
Программа кодирования : mkvmerge v42.0.0 (\'Overtime\') 32-bit
Библиотека кодирования : libebml v1.3.10 + libmatroska v1.5.2
Видео
Идентификатор : 1
Формат : AVC
Формат/Информация : Advanced Video Codec
Профиль формата : [email protected]
Настройки формата : 1 Ref Frames
Параметр CABAC формата : Нет
Параметр RefFrames формата : 1 кадр
Идентификатор кодека : V_MPEG4/ISO/AVC
Продолжительность : 1 ч. 43 м.
Битрейт : 1 344 Кбит/сек
Ширина : 1 920 пикселей
Высота : 804 пикселя
Соотношение сторон : 2, 40: 1
Режим частоты кадров : Постоянный
Частота кадров : 25, 000 кадров/сек
Цветовое пространство : YUV
Субдискретизация насыщенности : 4: 2: 0
Битовая глубина : 8 бит
Тип развёртки : Прогрессивная
Бит/(Пиксели*Кадры) : 0.035
Размер потока : 987 Мбайт (72%)
Заголовок : Грань невинности/Xia tian 19 sui de xiao xiang/Edge of Innocence (2017) WEB-DL (1080p)
Библиотека кодирования : x264 core 142 r2479 dd79a61
Настройки программы : cabac=0/ref=1/deblock=1: 0: 0/analyse=0x1: 0x111/me=hex/subme=2/psy=1/psy_rd=1.00: 0.00/mixed_ref=0/me_range=16/chroma_me=1/trellis=0/8x8dct=0/cqm=0/deadzone=21, 11/fast_pskip=1/chroma_qp_offset=0/threads=8/lookahead_threads=2/sliced_threads=0/nr=0/decimate=1/interlaced=0/bluray_compat=0/constrained_intra=0/bframes=0/weightp=0/keyint=250/keyint_min=24/scenecut=40/intra_refresh=0/rc_lookahead=10/rc=abr/mbtree=1/bitrate=1344/ratetol=1.0/qcomp=0.60/qpmin=0/qpmax=69/qpstep=4/ip_ratio=1.40/aq=1: 1.00
Язык : Chinese
Default : Да
Forced : Да
Аудио #1
Идентификатор : 2
Формат : AC-3
Формат/Информация : Audio Coding 3
Коммерческое название : Dolby Digital
Идентификатор кодека : A_AC3
Продолжительность : 1 ч. 43 м.
Вид битрейта : Постоянный
Битрейт : 192 Кбит/сек
Каналы : 2 канала
Channel layout : L R
Частота : 48, 0 КГц
Частота кадров : 31, 250 кадров/сек (1536 SPF)
Метод сжатия : С потерями
Задержка видео : -23 мс.
Размер потока : 141 Мбайт (10%)
Заголовок : MVO STEPonee
Язык : Russian
Service kind : Complete Main
Default : Да
Forced : Да
Аудио #2
Идентификатор : 3
Формат : AC-3
Формат/Информация : Audio Coding 3
Коммерческое название : Dolby Digital
Идентификатор кодека : A_AC3
Продолжительность : 1 ч. 42 м.
Вид битрейта : Постоянный
Битрейт : 192 Кбит/сек
Каналы : 2 канала
Channel layout : L R
Частота : 48, 0 КГц
Частота кадров : 31, 250 кадров/сек (1536 SPF)
Метод сжатия : С потерями
Задержка видео : -23 мс.
Размер потока : 141 Мбайт (10%)
Заголовок : DVO SoftBox
Язык : Russian
Service kind : Complete Main
Default : Нет
Forced : Нет
Аудио #3
Идентификатор : 4
Формат : AAC LC
Формат/Информация : Advanced Audio Codec Low Complexity
Идентификатор кодека : A_AAC-2
Продолжительность : 1 ч. 43 м.
Битрейт : 128 Кбит/сек
Каналы : 2 канала
Channel layout : L R
Частота : 44, 1 КГц
Частота кадров : 43, 066 кадра/сек (1024 SPF)
Метод сжатия : С потерями
Задержка видео : -23 мс.
Размер потока : 94, 3 Мбайт (7%)
Заголовок : Mandarin
Язык : Chinese
Default : Нет
Forced : Нет
Текст
Идентификатор : 5
Формат : ASS
Идентификатор кодека : S_TEXT/ASS
Идентификатор кодека/Информация : Advanced Sub Station Alpha
Продолжительность : 59 м. 40 с.
Битрейт : 1 бит/сек
Count of elements : 2
Метод сжатия : Без потерь
Размер потока : 626 байт (0%)
Заголовок : Mandarin
Язык : Chinese
Default : Нет
Forced : Нет

Другие торренты по теме:

  • Грань будущего / Edge of Tomorrow (2014) BDRip
  • Грань будущего / Edge of Tomorrow (2014) BDRip [H.264]
  • Грань будущего / Edge of Tomorrow (2014) BDRip
  • Грань будущего / Edge of Tomorrow (2014) BDRip [1080p] 3D [Вертикальная анаморфная стереопара]
  • Грань будущего / Edge of Tomorrow (2014) BDRemux [1080p]
  • Грань будущего / Edge of Tomorrow (2014) BDRip [1080p]
  • Грань будущего / Edge of Tomorrow (2014) BDRip [1080p] 3D [Горизонтальная анаморфная стереопара]
  • Грань будущего / Edge of Tomorrow (2014) BDRip [720p]

  • Посетители, находящиеся в группе Гости, не могут оставлять комментарии в данной новости.