Подписывайся на наш канал в Telegram https://t.me/torrentok и получи доступ к торрентам без ограничений!

Король и Шут - На краю (Live) (2013) BDRip [H.264 / 1080p] [PR] торрент скачать бесплатно

Король и Шут - На краю (Live) (2013) BDRip [H.264 / 1080p] [PR]Жанр: Панк-рок
Состав: Михаил Горшенёв (Горшок) — вокал, Александр Щиголев (Поручик) — барабаны, Яков Цвиркунов (Яша) — гитара, бэк-вокал, Сергей Захаров (Захар) — бас-гитара, Павел Сажинов — звукооператор, клавиши, Александр Леонтьев (Ренегат) — гитара, бэк-вокал, вокал.

Описание

2 февраля 2013 года состоялся легендарный концерт На Краю в Юбилейном, широко известному по последнему DVD группы. Аудио-дорожка записывалась группой, а обработку звука делал лично Михаил Горшенев. Сегодня представляется возможность увидеть любимый концерт в великолепном качестве, с отличным несжатым звуком! Огромная благодарность группе Северный Флот, и лично Якову Цвиркунову за предоставленный аудио-материал! За сделанный монтаж обновленного звука в видео и аудио концерта спасибо Артёму Сочейкину.
Продолжительность: 01: 22: 51
Качество видео: BDRip
Видео: AVC/H.264, 1920х1080, ~15, 5 Mbps
Аудио #1: AC3, 2 ch, 640 Kbps
Аудио #2: PCM, 2 ch, 1440 KbpsТреклист:
01. Исповедь вампира
02. Король и Шут
03. Продавец кошмаров
04. Фокусник
05. Дурак и молния
06. Смертный приговор
07. Священник больше ничего не скажет
08. Паника в селе
09. Похороны панка
10. Отражение
11. Хардкор по-русски
12. Смерть на балу
13. Камнем по голове
14. Тринадцатая рана
15. Шар голубой
16. Воспоминания о былой любви
17. Медведь (акустика)
18. Северный флот (акустика)
19. Ели мясо мужики
20. Марионетки
21. Счастье?
22. Танец злобного гения
23. Мёртвый анархист
24. Лесник
25. На краю
Общее
Уникальный идентификатор : 68259973244704028915300405984463018420 (0x335A64848BFF8F0621F6ADA57C3DD9B4)
Полное имя : F: TempКороль и Шут - На краю (Live) - 2013.mkv
Формат : Matroska
Версия формата : Version 4
Размер файла : 10, 1 Гбайт
Продолжительность : 1 ч. 22 м.
Общий поток : 17, 5 Мбит/сек
Дата кодирования : UTC 2020-08-17 22: 00: 59
Программа кодирования : mkvmerge v49.0.0 (\'Sick Of Losing Soulmates\') 64-bit
Библиотека кодирования : libebml v1.4.0 + libmatroska v1.6.1
Attachments : Король и Шут - На краю (Live) - 2013.jpg
Видео
Идентификатор : 1
Формат : AVC
Формат/Информация : Advanced Video Codec
Профиль формата : [email protected]
Настройки формата : CABAC/4 Ref Frames
Параметр CABAC формата : Да
Параметр RefFrames формата : 4 кадра
Идентификатор кодека : V_MPEG4/ISO/AVC
Продолжительность : 1 ч. 22 м.
Битрейт : 15, 5 Мбит/сек
Ширина : 1 920 пикселей
Высота : 1 080 пикселей
Соотношение сторон : 16: 9
Режим частоты кадров : Постоянный
Частота кадров : 25, 000 кадров/сек
Цветовое пространство : YUV
Субдискретизация насыщенности : 4: 2: 0
Битовая глубина : 8 бит
Тип развёртки : Прогрессивная
Бит/(Пиксели*Кадры) : 0.298
Размер потока : 8, 95 Гбайт (88%)
Заголовок : Король и Шут - На краю (Live) (2013)
Библиотека кодирования : x264 core 157 r2958 57baac4
Настройки программы : cabac=1/ref=4/deblock=1: -3: -3/analyse=0x3: 0x133/me=tesa/subme=11/psy=1/psy_rd=1.05: 0.10/mixed_ref=1/me_range=32/chroma_me=1/trellis=2/8x8dct=1/cqm=0/deadzone=21, 11/fast_pskip=0/chroma_qp_offset=-3/threads=9/lookahead_threads=1/sliced_threads=0/nr=0/decimate=1/interlaced=0/bluray_compat=0/constrained_intra=0/bframes=3/b_pyramid=2/b_adapt=2/b_bias=0/direct=3/weightb=1/open_gop=0/weightp=2/keyint=250/keyint_min=25/scenecut=40/intra_refresh=0/rc_lookahead=60/rc=crf/mbtree=1/crf=18.0/qcomp=0.70/qpmin=3/qpmax=69/qpstep=4/ip_ratio=1.40/aq=2: 1.00
Язык : Russian
Default : Да
Forced : Да
Цветовой диапазон : Limited
Основные цвета : BT.709
Характеристики трансфера : BT.709
Коэффициенты матрицы : BT.709
Аудио #1
Идентификатор : 2
Формат : AC-3
Формат/Информация : Audio Coding 3
Коммерческое название : Dolby Digital
Идентификатор кодека : A_AC3
Продолжительность : 1 ч. 22 м.
Вид битрейта : Постоянный
Битрейт : 640 Кбит/сек
Каналы : 2 канала
Channel layout : L R
Частота : 44, 1 КГц
Частота кадров : 28, 711 кадров/сек (1536 SPF)
Метод сжатия : С потерями
Размер потока : 379 Мбайт (4%)
Заголовок : AC3, 2 канала, 640 кбит/с
Язык : Russian
Service kind : Complete Main
Default : Да
Forced : Да
Аудио #2
Идентификатор : 3
Формат : PCM
Настройки формата : Little/Signed
Идентификатор кодека : A_PCM/INT/LIT
Продолжительность : 1 ч. 22 м.
Вид битрейта : Постоянный
Битрейт : 1 411, 2 Кбит/сек
Каналы : 2 канала
Частота : 44, 1 КГц
Частота кадров : 5, 000 кадров/сек (8820 SPF)
Битовая глубина : 16 бит
Размер потока : 836 Мбайт (8%)
Заголовок : PCM, 2 канала, 1 411 кбит/с (оригинал)
Язык : Russian
Default : Нет
Forced : Нет
Меню
00: 00: 41.000 : ru: Исповедь вампира
00: 05: 15.000 : ru: Король и шут
00: 08: 02.000 : ru: Продавец кошмаров
00: 11: 40.000 : ru: Фокусник
00: 15: 17.000 : ru: Дурак и молния
00: 17: 45.000 : ru: Смертельный приговор
00: 20: 52.000 : ru: Священник больше ничего не скажет
00: 24: 50.000 : ru: Паника в селе
00: 28: 25.000 : ru: Похороны панка
00: 30: 50.000 : ru: Отражение
00: 36: 25.000 : ru: Хардкор по-русски
00: 39: 15.000 : ru: Смерть на балу
00: 42: 25.000 : ru: Камнем по голове
00: 45: 25.000 : ru: Тринадцатая рана
00: 46: 25.000 : ru: Шар голубой
00: 47: 42.000 : ru: Воспоминания о былой любви
00: 52: 15.000 : ru: Медведь (акустика)
00: 55: 40.000 : ru: Северный флот (акустика)
00: 58: 00.000 : ru: Ели мясо мужики
01: 00: 12.000 : ru: Марионетки
01: 04: 10.000 : ru: Счастье
01: 07: 25.000 : ru: Танец злобного гения
01: 11: 48.000 : ru: Мертвый анархист
01: 15: 35.000 : ru: Лесник
01: 19: 17.000 : ru: На краю

Другие торренты по теме:

  • Король и Шут - На краю Live (2014) HDRip [H.264] [MP4|1920x1080] скачать через торрент бесплатно

  • Посетители, находящиеся в группе Гости, не могут оставлять комментарии в данной новости.