Подписывайся на наш канал в Telegram https://t.me/torrentok и получи доступ к торрентам без ограничений!

Комната 104 / Room 104 (2020) WEBRip [H.264 / 720p-LQ] (сезон 4, серии 1-5 из 12) OMSKBIRD (обновляемая) [AD] торрент скачать бесплатно

Комната 104 / Room 104 (2020) WEBRip [H.264 / 720p-LQ] (сезон 4, серии 1-5 из 12) OMSKBIRD (обновляемая) [AD]Производство: США/Duplass Brothers Productions, HBO Entertainment
Жанр: ужасы, фантастика, фэнтези, триллер, драма, комедия, детектив
Режиссер: Патрик Брайс, Росс Патридж, Даг Эмметт

Актеры
Дженнифер ЛаФлер, Дженни Леонхардт, Майкл Чандлер, Дейл Дикки, Кристина Харрисон, Роберт Лонгстрит, Мариэль Эйснер, Мелони Диас, Кларк Дьюк, Джей Дюпласс

Описание

Действие происходит в номере обыкновенного американского отеля неподалёку от аэропорта. Это самое скучное и унылое место, которое только можно вообразить. Но именно среди тусклой обыденности часто случаются необыкновенные вещи — смешные, странные, грустные, абсурдные и даже страшные.


Возраст: 18+ (зрителям, достигшим 18 лет)
Релиз от: OMSKBIRD
Продолжительность: ~00: 28: 00 серия
Качество видео: WEBRip
Перевод: Многоголосый закадровый (OMSKBIRD)
Реклама: Релиз содержит рекламные видео, аудио вставки
Видео: AVC/H.264, 1280x720, ~ 2900 Kbps
Аудио: AC3, 2 ch, 192 Kbps
Общее
Уникальный идентификатор : 209310472399150585025819278409322944594 (0x9D77BB0BAA1CF91BB3CA4E50623B5852)
Полное имя : Room.104.S04.720p.WEBRip.OmskBirdRoom.104.S04E01.720p.WEBRip.OmskBird.mkv
Формат : Matroska
Версия формата : Version 4
Размер файла : 619 Мбайт
Продолжительность : 27 м. 57 с.
Общий поток : 3094 Кбит/сек
Дата кодирования : UTC 2020-07-25 19: 45: 32
Программа кодирования : mkvmerge v7.8.0 (\'River Man\') 32bit built on Apr 3 2015 12: 11: 22
Библиотека кодирования : libebml v1.3.1 + libmatroska v1.4.2
Видео
Идентификатор : 1
Формат : AVC
Формат/Информация : Advanced Video Codec
Профиль формата : [email protected]
Настройки формата : CABAC/3 Ref Frames
Параметр CABAC формата : Да
Параметр RefFrames формата : 3 кадра
Идентификатор кодека : V_MPEG4/ISO/AVC
Продолжительность : 27 м. 57 с.
Битрейт : 2900 Кбит/сек
Ширина : 1280 пикселей
Высота : 720 пикселей
Соотношение сторон : 16: 9
Режим частоты кадров : Постоянный
Частота кадров : 23, 976 (24000/1001) кадра/сек
Стандарт вещания : PAL
Цветовое пространство : YUV
Субдискретизация насыщенности : 4: 2: 0
Битовая глубина : 8 бит
Тип развёртки : Прогрессивная
Бит/(Пиксели*Кадры) : 0.131
Размер потока : 580 Мбайт (94%)
Язык : English
Default : Да
Forced : Нет
Цветовой диапазон : Limited
Основные цвета : BT.709
Характеристики трансфера : BT.709
Коэффициенты матрицы : BT.709
Аудио
Идентификатор : 2
Формат : AC-3
Формат/Информация : Audio Coding 3
Коммерческое название : Dolby Digital
Идентификатор кодека : A_AC3
Продолжительность : 27 м. 57 с.
Вид битрейта : Постоянный
Битрейт : 192 Кбит/сек
Каналы : 2 канала
ChannelLayout : L R
Частота : 48, 0 КГц
Частота кадров : 31, 250 кадров/сек (1536 SPF)
Метод сжатия : С потерями
Размер потока : 38, 4 Мбайт (6%)
ServiceKind/String : Complete Main
Default : Да
Forced : Нет

Скриншоты для ознакомления



Все одноименные релизы в Клубе
Время раздачи: с 08: 00 до 23: 30 (до появления первых 3-5 скачавших)

Другие торренты по теме:

  • Комната / Room (2015) DVDScr скачать через торрент бесплатно
  • Комната / Room (2015) DVDScr скачать через торрент бесплатно
  • Комната / Room (2015) DVDScr
  • Комната / Room (2015) WEB-DLRip
  • Комната / Room (2015) WEB-DL [H.264 / 1080p-LQ]
  • Комната / Room (2015) BDRip [H.264 / 1080p]
  • Комната / Room (2015) BDRemux [H.264 / 1080p] [EN / EN, Sp Sub]
  • Комната / Room (2015) BDRemux [H.264 / 1080p]

  • Посетители, находящиеся в группе Гости, не могут оставлять комментарии в данной новости.