Подписывайся на наш канал в Telegram https://t.me/torrentok и получи доступ к торрентам без ограничений!

Люцифер / Lucifer (2020) WEB-DLRip (сезон 5, серии 1-8 из 16) VSI Moscow (обновляемая) торрент скачать бесплатно

Люцифер / Lucifer (2020) WEB-DLRip (сезон 5, серии 1-8 из 16) VSI Moscow (обновляемая)Производство: США/Aggressive Mediocrity, DC Entertainment, Jerry Bruckheimer Television
Жанр: фэнтези, драма, криминал
Режиссер: Нэйтан Хоуп, Луис Шоу Милито, Карен Гавиола

Актеры
Том Эллис, Лорен Джерман, Кевин Алехандро, Д. Б. Вудсайд, Лесли-Энн Брандт, Скарлетт Эстевес, Рэйчел Харрис, Айми Гарсиа, Инбар Лави, Грэм Мактавиш и др.

Описание

Заскучавший и несчастный повелитель преисподней Люцифер Морнингстар оставил свой престол и отправился в современный Лос-Анджелес, где основал ночной клуб Lux. Очаровательный, харизматичный и дьявольски привлекательный Люцифер наслаждается отдыхом — вином, женщинами и музыкой, пока красивая поп-звезда не оказывается убитой на пороге его клуба.


Возраст: 18+ (зрителям, достигшим 18 лет. запрещено для детей)
Продолжительность: ~00: 43: 00 серия
Качество видео: WEB-DLRip
Перевод: Дублированный (VSI Moscow по заказу Netflix)
Субтитры: русские, английские (отдельными файлами)
Видео: Xvid, 720x400, ~1700 Kbps
Аудио #1: AC3, 2 ch, 192 Kbps - русский
Аудио #2: AC3, 2 ch, 192 Kbps - английский
Общее
Полное имя : D: Lucifer (Season 5) DUB WEB-DLRipLucifer.S05E01.WEB-DLRip. .Wentworth_Miller.avi
Формат : AVI
Формат/Информация : Audio Video Interleave
Размер файла : 778 Мбайт
Продолжительность : 51 м. 49 с.
Общий поток : 2 098 Кбит/сек
Программа кодирования : VirtualDubMod 1.5.10.3 |www.virtualdub-fr.org|| (build 2550/release)
Видео
Идентификатор : 0
Формат : MPEG-4 Visual
Профиль формата : Advanced [email protected]
Настройки формата : BVOP1
Параметр BVOP формата : 1
Параметр QPel формата : Нет
Параметр GMC формата : Без точки перехода
Параметр матрицы формата : Default (MPEG)
Идентификатор кодека : XVID
Идентификатор кодека/Подсказка : XviD
Продолжительность : 51 м. 49 с.
Битрейт : 1 700 Кбит/сек
Ширина : 720 пикселей
Высота : 400 пикселей
Соотношение сторон : 16: 9
Частота кадров : 23, 976 (24000/1001) кадра/сек
Цветовое пространство : YUV
Субдискретизация насыщенности : 4: 2: 0
Битовая глубина : 8 бит
Тип развёртки : Прогрессивная
Метод сжатия : С потерями
Бит/(Пиксели*Кадры) : 0.246
Размер потока : 630 Мбайт (81%)
Библиотека кодирования : XviD 67
Аудио #1
Идентификатор : 1
Формат : AC-3
Формат/Информация : Audio Coding 3
Коммерческое название : Dolby Digital
Идентификатор кодека : 2000
Продолжительность : 51 м. 49 с.
Вид битрейта : Постоянный
Битрейт : 192 Кбит/сек
Каналы : 2 канала
Channel layout : L R
Частота : 48, 0 КГц
Частота кадров : 31, 250 кадров/сек (1536 SPF)
Метод сжатия : С потерями
Размер потока : 71, 2 Мбайт (9%)
Выравнивание : Разделение по промежуткам
Продолжительность промежутка : 42 мс. (1, 00 видеокадр)
Время предзагрузки промежутка : 500 мс.
Service kind : Complete Main
Аудио #2
Идентификатор : 2
Формат : AC-3
Формат/Информация : Audio Coding 3
Коммерческое название : Dolby Digital
Идентификатор кодека : 2000
Продолжительность : 51 м. 49 с.
Вид битрейта : Постоянный
Битрейт : 192 Кбит/сек
Каналы : 2 канала
Channel layout : L R
Частота : 48, 0 КГц
Частота кадров : 31, 250 кадров/сек (1536 SPF)
Метод сжатия : С потерями
Размер потока : 71, 2 Мбайт (9%)
Выравнивание : Разделение по промежуткам
Продолжительность промежутка : 42 мс. (1, 00 видеокадр)
Время предзагрузки промежутка : 500 мс.
Service kind : Complete Main

Другие торренты по теме:

  • Люцифер / Lucifer (2020) WEBRip [H.264 / 1080p-LQ](сезон 5, серии 1-3 из 16) ViruseProject (обновляемая)
  • Люцифер / Lucifer (2020) WEBRip (сезон 5, серии 1-3 из 16) ViruseProject (обновляемая)
  • Люцифер / Lucifer (2020) WEBRip [H.264 / 1080p-LQ] (сезон 5, серии 1-8 из 16) OmskBird (обновляемая) [AD]
  • Люцифер / Lucifer (2020) WEBRip [H.264 / 720p-LQ] (сезон 5, серии 1-8 из 16) OmskBird (обновляемая) [AD]
  • Люцифер / Lucifer (2020) WEBRip (сезон 5, серии 1-8 из 16) OmskBird (обновляемая) [AD]
  • Люцифер / Lucifer (2020) WEB-DL [H.264 / 720p-LQ] (сезон 5, серии 1 из 16) LostFilm (обновляемая)
  • Люцифер / Lucifer (2020) WEB-DLRip [H.264 / 1080p-LQ] (сезон 5, серии 1-8 из 16) VSI Moscow (обновляемая)
  • Люцифер / Lucifer (2015) HDTV [H.264 / 720p-LQ] (сезон 1, серия 1 из ) [EN / RU, EN Sub] скачать через торрент бесплатно

  • Посетители, находящиеся в группе Гости, не могут оставлять комментарии в данной новости.