Подписывайся на наш канал в Telegram https://t.me/torrentok и получи доступ к торрентам без ограничений!

Агент Ева / Ava (2020) WEB-DL [H.264 / 1080p-LQ] [MVO] торрент скачать бесплатно

Агент Ева / Ava (2020) WEB-DL [H.264 / 1080p-LQ] [MVO]Производство: США/Freckle Films, Voltage Pictures
Жанр: Боевик, триллер, драма, криминал, детектив
Режиссер: Тейт Тейлор

Актеры
Джессика Честейн, Джон Малкович, Джесс Вейкслер, Коммон, Джина Дэвис, Колин Фаррелл, Диана Сильверс, Йоан Гриффит, Джоан Чэнь, Janelle Feigley

Описание

Она умна, красива и чрезвычайно опасна. Перемещаясь по миру словно тень, агент по имени Ева в одиночку выполняет самые сложные задания своего руководства. Когда внезапно очередная спецоперация идет не по плану, и Ева решает выйти из игры, один из влиятельных боссов секретной службы открывает на неё охоту.


Возраст: 18+ (зрителям, достигшим 18 лет. запрещено для детей)
Рейтинг MPAA: R (лицам до 17 лет обязательно присутствие взрослого)
Дата мировой премьеры: 2 июля 2020
Дата российской премьеры: 20 августа 2020 , Вольга
Продолжительность: 01: 37: 09
Качество видео: WEB-DL 1080p
Перевод: Профессиональный многоголосый(HDRezka Studio)
Субтитры: русские (Forced), английские (Forced, Full)
Видео: AVC/H.264, 1920x804, ~4495 Кbps, 23, 976 fps
Аудио 1 : AC3, 6 ch, 448 Kbps - Русский
Аудио 2 : AC3, 6 ch, 384 Kbps - Английский
Общее
Уникальный идентификатор : 100417444330716763518414934097667940016 (0x4B8BB2408E2BD93DE30347929FE9DEB0)
Полное имя : Ava.2020.WEB-DL.1080p.W.mkv
Формат : Matroska
Версия формата : Version 4
Размер файла : 3, 62 Гбайт
Продолжительность : 1 ч. 37 м.
Общий поток : 5 329 Кбит/сек
Название фильма : Ava.2020.WEB-DL.1080p.W
Дата кодирования : UTC 2020-08-24 16: 25: 47
Программа кодирования : mkvmerge v23.0.0 (\'The Bride Said No\') 64-bit
Библиотека кодирования : libebml v1.3.6 + libmatroska v1.4.9
Видео
Идентификатор : 1
Формат : AVC
Формат/Информация : Advanced Video Codec
Профиль формата : [email protected]
Настройки формата : CABAC/5 Ref Frames
Параметр CABAC формата : Да
Параметр RefFrames формата : 5 кадров
Идентификатор кодека : V_MPEG4/ISO/AVC
Продолжительность : 1 ч. 37 м.
Битрейт : 4 495 Кбит/сек
Ширина : 1 920 пикселей
Высота : 804 пикселя
Соотношение сторон : 2, 40: 1
Режим частоты кадров : Постоянный
Частота кадров : 23, 976 кадра/сек
Цветовое пространство : YUV
Субдискретизация насыщенности : 4: 2: 0
Битовая глубина : 8 бит
Тип развёртки : Прогрессивная
Бит/(Пиксели*Кадры) : 0.121
Размер потока : 3, 05 Гбайт (84%)
Язык : English
Default : Да
Forced : Нет
Цветовой диапазон : Limited
Основные цвета : BT.709
Характеристики трансфера : BT.709
Коэффициенты матрицы : BT.709
Аудио #1
Идентификатор : 2
Формат : AC-3
Формат/Информация : Audio Coding 3
Коммерческое название : Dolby Digital
Идентификатор кодека : A_AC3
Продолжительность : 1 ч. 37 м.
Вид битрейта : Постоянный
Битрейт : 448 Кбит/сек
Каналы : 6 каналов
Channel layout : L R C LFE Ls Rs
Частота : 48, 0 КГц
Частота кадров : 31, 250 кадров/сек (1536 SPF)
Метод сжатия : С потерями
Задержка видео : -42 мс.
Размер потока : 311 Мбайт (8%)
Заголовок : MVO (HDrezka Studio)
Язык : Russian
Service kind : Complete Main
Default : Да
Forced : Нет
Аудио #2
Идентификатор : 3
Формат : AC-3
Формат/Информация : Audio Coding 3
Коммерческое название : Dolby Digital
Идентификатор кодека : A_AC3
Продолжительность : 1 ч. 37 м.
Вид битрейта : Постоянный
Битрейт : 384 Кбит/сек
Каналы : 6 каналов
Channel layout : L R C LFE Ls Rs
Частота : 48, 0 КГц
Частота кадров : 31, 250 кадров/сек (1536 SPF)
Метод сжатия : С потерями
Задержка видео : -42 мс.
Размер потока : 267 Мбайт (7%)
Язык : English
Service kind : Complete Main
Default : Нет
Forced : Нет
Текст #1
Идентификатор : 4
Формат : UTF-8
Идентификатор кодека : S_TEXT/UTF8
Идентификатор кодека/Информация : UTF-8 Plain Text
Продолжительность : 54 м. 4 с.
Битрейт : 9 бит/сек
Count of elements : 83
Размер потока : 3, 93 Кбайт (0%)
Заголовок : Forced
Язык : Russian
Default : Да
Forced : Нет
Текст #2
Идентификатор : 5
Формат : UTF-8
Идентификатор кодека : S_TEXT/UTF8
Идентификатор кодека/Информация : UTF-8 Plain Text
Продолжительность : 23 м. 15 с.
Битрейт : 2 бит/сек
Count of elements : 18
Размер потока : 458 байт (0%)
Заголовок : Forced
Язык : English
Default : Нет
Forced : Нет
Текст #3
Идентификатор : 6
Формат : UTF-8
Идентификатор кодека : S_TEXT/UTF8
Идентификатор кодека/Информация : UTF-8 Plain Text
Продолжительность : 1 ч. 31 м.
Битрейт : 45 бит/сек
Count of elements : 1131
Размер потока : 30, 4 Кбайт (0%)
Язык : English
Default : Нет
Forced : Нет
Меню
00: 00: 00.000 : en: Chapter 01
00: 11: 24.851 : en: Chapter 02
00: 20: 49.874 : en: Chapter 03
00: 35: 00.599 : en: Chapter 04
00: 42: 01.477 : en: Chapter 05
00: 51: 10.274 : en: Chapter 06
00: 58: 45.520 : en: Chapter 07
01: 10: 52.455 : en: Chapter 08
01: 18: 43.967 : en: Chapter 09
01: 32: 48.227 : en: Chapter 10

Скриншоты для ознакомления



Все одноименные релизы в Клубе
Время раздачи: 24/7 (круглосуточно) (до появления первых 3-5 скачавших)

Другие торренты по теме:

  • Агент Картер / Agent Carter (2015) WEB-DL [H.264 / 720p-LQ] (Сезон 1, серии 1-8 из 8) (Невафильм) скачать через торрент бесплатно
  • Агент Икс / Agent X (2015) WEB-DL [H.264 / 720p-LQ] (сезон 1, серия 1 из 10) (BaibaKo) (обновляемая) скачать через торрент бесплатно
  • Агент Картер / Agent Carter (2016) WEB-DL [H.264 / 720p-LQ] (сезон 2, серия 1 из 10) (LostFilm) (обновляемая)
  • Агент Картер / Agent Carter (2016) WEB-DL [H.264 / 1080p-LQ] (сезон 2, серии 1-10 из 10) LostFilm
  • Секретный агент / The Secret Agent (2016) WEB-DL [H.264 / 1080p-LQ] (сезон 1, серии 1 из 6) BaibaKo (обновляемая)
  • Секретный агент / Unlocked (2017) WEB-DL [H.264 / 1080p-LQ]
  • Секретный агент / Unlocked (2017) WEB-DL [720p] ATV
  • Секретный агент / Unlocked (2017) WEB-DL [1080p] ATV

  • Посетители, находящиеся в группе Гости, не могут оставлять комментарии в данной новости.