Подписывайся на наш канал в Telegram https://t.me/torrentok и получи доступ к торрентам без ограничений!

Убийственная команда / The Kill Team (2019) BDRip [H.265 / 1080p-LQ] [10-bit] торрент скачать бесплатно

Убийственная команда / The Kill Team (2019) BDRip [H.265 / 1080p-LQ] [10-bit]Производство: Испания, США/Nostromo Pictures, Temple Hill Entertainment
Жанр: Боевик, триллер, драма, военный
Режиссер: Дэн Краусс

Актеры
Александр Скарсгард, Нат Вулф, Адам Лонг, Джонатан Уайтселл, Брайан Сене Марк, Ози Икхайл, Роб Морроу, Анна Франколини, Оливер Ричи, Йен Кейр Аттард

Описание
Молодой американский солдат в Афганистане обеспокоен поведением своего командира и сталкивается с моральной дилеммой.


Возраст: 18+ (зрителям, достигшим 18 лет. запрещено для детей)
Рейтинг MPAA: R (лицам до 17 лет обязательно присутствие взрослого)
Дата мировой премьеры: 27 апреля 2019
Релиз от: mikos
Продолжительность: 01: 27: 32
Качество видео: BDRip
Перевод: Дублированный (iTunes)
Субтитры: Русские (форсированные, полные), английские
Видео: HEVC/H.265, 1920x804, ~3902 Kbps
Аудио 1: AC3, 6 ch, 384 Kbps - Русский, дублированный
Аудио 2: AC3, 6 ch, 448 Kbps - Английский
Общее
Уникальный идентификатор : 27255557165976257034975729028628929790 (0x14813AB7F8DA4DA3A8A7416D165EDCFE)
Полное имя : R: Убийственная команда. 2019. 1080p. HEVC. 10bit..mkv
Формат : Matroska
Версия формата : Version 4/Version 2
Размер файла : 2, 90 Гбайт
Продолжительность : 1 ч. 27 м.
Общий поток : 4736 Кбит/сек
Дата кодирования : UTC 2020-08-24 15: 33: 34
Программа кодирования : mkvmerge v28.2.0 (\'The Awakening\') 64-bit
Библиотека кодирования : libebml v1.3.6 + libmatroska v1.4.9
Обложка : Yes
Attachments : cover.jpg
Видео
Идентификатор : 1
Формат : HEVC
Формат/Информация : High Efficiency Video Coding
Профиль формата : [email protected]@High
Идентификатор кодека : V_MPEGH/ISO/HEVC
Продолжительность : 1 ч. 27 м.
Битрейт : 3902 Кбит/сек
Ширина : 1920 пикселей
Высота : 804 пикселя
Соотношение сторон : 2, 40: 1
Режим частоты кадров : Постоянный
Частота кадров : 23, 976 (24000/1001) кадра/сек
Цветовое пространство : YUV
Субдискретизация насыщенности : 4: 2: 0
Битовая глубина : 10 бит
Бит/(Пиксели*Кадры) : 0.105
Размер потока : 2, 39 Гбайт (82%)
Заголовок : Рип от mikos
Библиотека кодирования : x265 3.2+5-354901970679: Windowsclang 8.0.164 bit 10bit
Настройки программы : cpuid=1111039/frame-threads=13/numa-pools=12/wpp/no-pmode/no-pme/no-psnr/no-ssim/log-level=3/input-csp=1/input-res=1920x804/interlace=0/total-frames=0/level-idc=41/high-tier=1/uhd-bd=0/ref=5/allow-non-conformance/no-repeat-t_heads/annexb/no-aud/no-hrd/info/hash=0/no-temporal-layers/open-gop/min-keyint=23/keyint=240/gop-lookahead=0/bframes=14/b-adapt=2/b-pyramid/bframe-bias=0/rc-lookahead=50/lookahead-slices=5/scenecut=40/radl=0/no-splice/no-intra-refresh/ctu=32/min-cu-size=8/no-rect/no-amp/max-tu-size=32/tu-inter-depth=1/tu-intra-depth=1/limit-tu=0/rdoq-level=0/dynamic-rd=0.00/no-ssim-rd/signhide/no-tskip/nr-intra=0/nr-inter=0/no-constrained-intra/strong-intra-smoothing/max-merge=3/limit-refs=1/no-limit-modes/me=2/subme=7/merange=57/temporal-mvp/no-frame-dup/no-hme/weightp/no-weightb/no-analyze-src-pics/deblock=-3: -2/sao/no-sao-non-deblock/rd=3/selective-sao=4/early-skip/rskip/no-fast-intra/no-tskip-fast/no-cu-lossless/b-intra/no-splitrd-skip/rdpenalty=0/psy-rd=2.00/psy-rdoq=0.00/no-rd-refine/no-lossless/cbqpoffs=-1/crqpoffs=0/rc=crf/crf=16.8/qcomp=0.65/qpstep=4/stats-write=0/stats-read=0/vbv-maxrate=50000/vbv-bufsize=50000/vbv-init=0.9/crf-max=28.0/crf-min=0.0/ipratio=1.40/pbratio=1.30/aq-mode=2/aq-strength=1.00/cutree/zone-count=0/no-strict-cbr/qg-size=32/no-rc-grain/qpmax=69/qpmin=0/no-const-vbv/sar=1/overscan=0/videoformat=5/range=0/colorprim=2/transfer=2/colormatrix=2/chromaloc=0/display-window=0/cll=0, 0/min-luma=0/max-luma=1023/log2-max-poc-lsb=8/vui-timing-info/vui-hrd-info/slices=1/no-opt-qp-pps/no-opt-ref-list-length-pps/no-multi-pass-opt-rps/scenecut-bias=0.05/no-opt-cu-delta-qp/no-aq-motion/no-hdr/no-hdr-opt/no-dhdr10-opt/no-idr-recovery-sei/analysis-reuse-level=5/scale-factor=0/refine-intra=0/refine-inter=0/refine-mv=1/refine-ctu-distortion=0/no-limit-sao/ctu-info=0/no-lowpass-dct/refine-analysis-type=0/copy-pic=1/max-ausize-factor=1.0/no-dynamic-refine/no-single-sei/no-hevc-aq/no-svt/no-field/qp-adaptation-range=1.00
Язык : English
Default : Да
Forced : Нет
Цветовой диапазон : Limited
Аудио #1
Идентификатор : 2
Формат : AC-3
Формат/Информация : Audio Coding 3
Идентификатор кодека : A_AC3
Продолжительность : 1 ч. 27 м.
Вид битрейта : Постоянный
Битрейт : 384 Кбит/сек
Каналы : 6 каналов
Расположение каналов : Front: L C R, Side: L R, LFE
Частота : 48, 0 КГц
Частота кадров : 31, 250 кадров/сек (1536 SPF)
Битовая глубина : 16 бит
Метод сжатия : С потерями
Размер потока : 240 Мбайт (8%)
Заголовок : Dub iTunes
Язык : Russian
ServiceKind/String : Complete Main
Default : Да
Forced : Нет
Аудио #2
Идентификатор : 3
Формат : AC-3
Формат/Информация : Audio Coding 3
Идентификатор кодека : A_AC3
Продолжительность : 1 ч. 27 м.
Вид битрейта : Постоянный
Битрейт : 448 Кбит/сек
Каналы : 6 каналов
Расположение каналов : Front: L C R, Side: L R, LFE
Частота : 48, 0 КГц
Частота кадров : 31, 250 кадров/сек (1536 SPF)
Битовая глубина : 16 бит
Метод сжатия : С потерями
Размер потока : 281 Мбайт (9%)
Заголовок : eng
Язык : English
ServiceKind/String : Complete Main
Default : Нет
Forced : Нет
Текст #1
Идентификатор : 4
Формат : UTF-8
Идентификатор кодека : S_TEXT/UTF8
Идентификатор кодека/Информация : UTF-8 Plain Text
Продолжительность : 43 м. 37 с.
Битрейт : 0 бит/сек
ElementCount : 9
Размер потока : 312 байт (0%)
Заголовок : forced
Язык : Russian
Default : Да
Forced : Нет
Текст #2
Идентификатор : 5
Формат : UTF-8
Идентификатор кодека : S_TEXT/UTF8
Идентификатор кодека/Информация : UTF-8 Plain Text
Продолжительность : 1 ч. 22 м.
Битрейт : 68 бит/сек
ElementCount : 873
Размер потока : 41, 2 Кбайт (0%)
Язык : Russian
Default : Нет
Forced : Нет
Текст #3
Идентификатор : 6
Формат : UTF-8
Идентификатор кодека : S_TEXT/UTF8
Идентификатор кодека/Информация : UTF-8 Plain Text
Продолжительность : 1 ч. 21 м.
Битрейт : 48 бит/сек
ElementCount : 931
Размер потока : 29, 0 Кбайт (0%)
Язык : English
Default : Нет
Forced : Нет
Меню
00: 00: 00.000 : : Chapter 01
00: 03: 28.917 : : Chapter 02
00: 09: 48.004 : : Chapter 03
00: 16: 32.533 : : Chapter 04
00: 22: 08.285 : : Chapter 05
00: 30: 03.218 : : Chapter 06
00: 36: 08.333 : : Chapter 07
00: 41: 25.107 : : Chapter 08
00: 46: 30.746 : : Chapter 09
00: 49: 54.825 : : Chapter 10
00: 54: 47.492 : : Chapter 11
00: 58: 57.826 : : Chapter 12
01: 04: 09.387 : : Chapter 13
01: 08: 43.286 : : Chapter 14
01: 12: 09.617 : : Chapter 15
01: 17: 00.491 : : Chapter 16

Другие торренты по теме:

  • Убийственная команда / The Kill Team (2019) BDRip [H.264 / 1080p]
  • Убийственная команда / The Kill Team (2019) BDRemux [H.264 / 1080p]

  • Посетители, находящиеся в группе Гости, не могут оставлять комментарии в данной новости.