Подписывайся на наш канал в Telegram https://t.me/torrentok и получи доступ к торрентам без ограничений!

Если бы я жил с мамой / Haha to kuraseba / Nagasaki: Memories of My Son (2015) HDRip [DVO] торрент скачать бесплатно

Если бы я жил с мамой / Haha to kuraseba / Nagasaki: Memories of My Son (2015) HDRip [DVO]Производство: Япония, Asahi Broadcasting Corporation (ABC), GyaO, Hakuhodo DY Media Partners
Жанр: Драма, фэнтези
Режиссер: Ёдзи Ямада

Актеры
Саюри Ёсинага, Кадзунари Ниномия, Хару Куроки, Таданобу Асано, Исао Хасидзумэ, Юрико Хироока, Мию Хонда, Кэнити Като, Нэндзи Кобаяси, Кристофер МакКомбс

Описание

9 августа 1948 года. Нобуко, акушерка из Нагасаки, ошеломлена внезапным визитом своего Кодзи, который, как она думала, умер три года назад в результате сброса на город атомной бомбы. В этот самый день, стоя у его могилы, ога сказала себе: В тот момент его не стало. Пора мне его отпустить... Вместе они вспоминают о старых добрых временах. Эти счастливые моменты, хоть и с причудливым оттенком, кажутся вечными.


Релиз от: Rip by vitolinform
Продолжительность: 02: 10: 07
Качество видео: HDRip
Перевод: Двуголосый любительский (Храм Дорам)
Субтитры: отсутствуют
Видео: Xvid, 720x384, ~1378 kbps
Аудио: AC3, 2 ch, 224 Кbps | Русский (DVO, Храм Дорам)
Общее
Полное имя : C: Esli.by.ya.zhil.s.mamoj.2015.HDRip.avi
Формат : AVI
Формат/Информация : Audio Video Interleave
Размер файла : 1, 46 Гбайт
Продолжительность : 2 ч. 10 м.
Общий поток : 1 611 Кбит/сек
Название фильма : Если бы я жил с мамой/Haha to kuraseba/Nagasaki: Memories of My Son (2015) HDRip
Режиссёр : Ёдзи Ямада/Yoji Yamada
Жанр : Драма, фэнтези
Программа кодирования : VirtualDubMod 1.5.10.2 (build 2542/release)
Формат оригинала/Имя : Художественный фильм
Авторское право : Япония, Asahi Broadcasting Corporation (ABC), GyaO, Hakuhodo DY Media Partners
Примечание : Rip by vitolinform
Видео
Идентификатор : 0
Формат : MPEG-4 Visual
Профиль формата : Advanced [email protected]
Настройки формата : BVOP1
Параметр BVOP формата : 1
Параметр QPel формата : Нет
Параметр GMC формата : Без точки перехода
Параметр матрицы формата : Default (MPEG)
Идентификатор кодека : XVID
Идентификатор кодека/Подсказка : XviD
Продолжительность : 2 ч. 10 м.
Битрейт : 1 378 Кбит/сек
Ширина : 720 пикселей
Высота : 384 пикселя
Соотношение сторон : 1, 85: 1
Частота кадров : 23, 976 (24000/1001) кадра/сек
Цветовое пространство : YUV
Субдискретизация насыщенности : 4: 2: 0
Битовая глубина : 8 бит
Тип развёртки : Прогрессивная
Метод сжатия : С потерями
Бит/(Пиксели*Кадры) : 0.208
Размер потока : 1, 25 Гбайт (86%)
Библиотека кодирования : XviD 69
Аудио
Идентификатор : 1
Формат : AC-3
Формат/Информация : Audio Coding 3
Коммерческое название : Dolby Digital
Идентификатор кодека : 2000
Продолжительность : 2 ч. 10 м.
Вид битрейта : Постоянный
Битрейт : 224 Кбит/сек
Каналы : 2 канала
Channel layout : L R
Частота : 48, 0 КГц
Частота кадров : 31, 250 кадров/сек (1536 SPF)
Метод сжатия : С потерями
Размер потока : 208 Мбайт (14%)
Выравнивание : Разделение по промежуткам
Продолжительность промежутка : 42 мс. (1, 00 видеокадр)
Время предзагрузки промежутка : 500 мс.
Заголовок : Russian (DVO, Храм Дорам)
Service kind : Complete Main

Другие торренты по теме:

  • Если... / If... (1968) DVDRip [VO]
  • Пойми меня, если сможешь / Incompresa (2014) WEBRip
  • Анатолий Сидоров | Если ты сам себе адвокат, значит твой клиент идиот (2014) [FB2]
  • Если я останусь / If I Stay (2014) CamRip скачать через торрент бесплатно
  • Если твоя девушка – зомби / Life After Beth (2014) WEB-DLRip
  • Если твоя девушка – зомби / Life After Beth (2014) WEB-DL [720p] ATV скачать через торрент бесплатно
  • Если твоя девушка – зомби / Life After Beth (2014) BDRip [H.264]
  • Если твоя девушка – зомби / Life After Beth (2014) BDRip [720p]

  • Посетители, находящиеся в группе Гости, не могут оставлять комментарии в данной новости.