Подписывайся на наш канал в Telegram https://t.me/torrentok и получи доступ к торрентам без ограничений!

Крест-накрест / XX (ekusu kurosu): makyо densetsu / X-Cross (2007) BDRip [DVO] торрент скачать бесплатно

Крест-накрест / XX (ekusu kurosu): makyо densetsu / X-Cross (2007) BDRip [DVO]Производство: Япония, Avex Entertainment, Earth Star Entertainment, IMJ Entertainment
Жанр: Ужасы, боевик, триллер, комедия
Режиссер: Кэнта Фукасаку
Продюсер: Масатакэ Кондо

Актеры
Нао Матсушита, Эми Сузуки, Хироюки Икэути, Сёко Накагава, Аюко Иванэ, Нозому Ивао, Рикия Кояма, Йошиюки Моришита, Такаси Нисина

Описание

Подруги Сиори и Аико решили отдохнуть от проблем в личной жизни на горячих источниках в деревне Асикари. Смешные местные жители, странновато прихрамывающие все как один на левую ногу, аккуратные пустующие домики из бревен, окруженные лесом и живописными горами. Там между подругами происходит размолвка, и они разделяются. Вернувшись в домик, Сиори находит чей-то телефон, а позвонивший на него молодой человек утверждает, что девушки находятся в большой опасности. Ведь деревенские ждут не дождутся начала ритуала, чтобы принести гостий в жертву, отрезав обеим левые ноги.


Релиз от: Rip by vitolinform
Продолжительность: 01: 30: 17
Качество видео: BDRip
Перевод: Двуголосый любительский (DeadSno Den904), одноголосый любительский (Long Boy)
Субтитры: Русские, английские - отдельными файлами
Видео: Xvid, 720x400, ~1475 kbps
Аудио 1: AC3, 2 ch, 192 Кbps | Русский (DVO, DeadSno Den904)
Аудио 2: AC3, 2 ch, 192 Кbps | Русский (VO, Long Boy)
Аудио 3: AC3, 6 ch, 448 Кbps | Японский
Общее
Полное имя : C: Krest-nakrest.2007.BDRipKrest-nakrest.2007.BDRip.avi
Формат : AVI
Формат/Информация : Audio Video Interleave
Размер файла : 1, 47 Гбайт
Продолжительность : 1 ч. 30 м.
Общий поток : 2 325 Кбит/сек
Название фильма : Крест-накрест/XX/(ekusu kurosu): - makyo densetsu/X-Cross (2007) BDRip
Режиссёр : Кэнта Фукасаку/Kenta Fukasaku
Жанр : Ужасы, боевик, триллер, комед
Программа кодирования : VirtualDubMod 1.5.10.2 (build 2542/release)
Формат оригинала/Имя : Художественный фильм
Авторское право : Япония, Avex Entertainment, Earth Star Entertainment, IMJ Entertainment
Примечание : Rip by vitolinform
Видео
Идентификатор : 0
Формат : MPEG-4 Visual
Профиль формата : Advanced [email protected]
Настройки формата : BVOP1
Параметр BVOP формата : 1
Параметр QPel формата : Нет
Параметр GMC формата : Без точки перехода
Параметр матрицы формата : Default (MPEG)
Идентификатор кодека : XVID
Идентификатор кодека/Подсказка : XviD
Продолжительность : 1 ч. 30 м.
Битрейт : 1 475 Кбит/сек
Ширина : 720 пикселей
Высота : 400 пикселей
Соотношение сторон : 16: 9
Частота кадров : 23, 976 (24000/1001) кадра/сек
Цветовое пространство : YUV
Субдискретизация насыщенности : 4: 2: 0
Битовая глубина : 8 бит
Тип развёртки : Прогрессивная
Метод сжатия : С потерями
Бит/(Пиксели*Кадры) : 0.214
Размер потока : 952 Мбайт (63%)
Библиотека кодирования : XviD 67
Аудио #1
Идентификатор : 1
Формат : AC-3
Формат/Информация : Audio Coding 3
Коммерческое название : Dolby Digital
Идентификатор кодека : 2000
Продолжительность : 1 ч. 30 м.
Вид битрейта : Постоянный
Битрейт : 192 Кбит/сек
Каналы : 2 канала
Channel layout : L R
Частота : 48, 0 КГц
Частота кадров : 31, 250 кадров/сек (1536 SPF)
Метод сжатия : С потерями
Размер потока : 124 Мбайт (8%)
Выравнивание : Разделение по промежуткам
Продолжительность промежутка : 42 мс. (1, 00 видеокадр)
Время предзагрузки промежутка : 500 мс.
Заголовок : Russian (DVO, DeadSno Den904)
Service kind : Complete Main
Аудио #2
Идентификатор : 2
Формат : AC-3
Формат/Информация : Audio Coding 3
Коммерческое название : Dolby Digital
Идентификатор кодека : 2000
Продолжительность : 1 ч. 30 м.
Вид битрейта : Постоянный
Битрейт : 192 Кбит/сек
Каналы : 2 канала
Channel layout : L R
Частота : 48, 0 КГц
Частота кадров : 31, 250 кадров/сек (1536 SPF)
Метод сжатия : С потерями
Размер потока : 124 Мбайт (8%)
Выравнивание : Разделение по промежуткам
Продолжительность промежутка : 42 мс. (1, 00 видеокадр)
Время предзагрузки промежутка : 500 мс.
Заголовок : Russian (VO, Long Boy)
Service kind : Complete Main
Аудио #3
Идентификатор : 3
Формат : AC-3
Формат/Информация : Audio Coding 3
Коммерческое название : Dolby Digital
Идентификатор кодека : 2000
Продолжительность : 1 ч. 30 м.
Вид битрейта : Постоянный
Битрейт : 448 Кбит/сек
Каналы : 6 каналов
Channel layout : L R C LFE Ls Rs
Частота : 48, 0 КГц
Частота кадров : 31, 250 кадров/сек (1536 SPF)
Метод сжатия : С потерями
Размер потока : 289 Мбайт (19%)
Выравнивание : Разделение по промежуткам
Продолжительность промежутка : 42 мс. (1, 00 видеокадр)
Время предзагрузки промежутка : 500 мс.
Заголовок : Japanese
Service kind : Complete Main

Скриншоты для ознакомления



Все одноименные релизы в Клубе
Время раздачи: 24/7 (мультитрекерная раздача) (до появления первых 3-5 скачавших)

Другие торренты по теме:


Посетители, находящиеся в группе Гости, не могут оставлять комментарии в данной новости.