Подписывайся на наш канал в Telegram https://t.me/torrentok и получи доступ к торрентам без ограничений!

Молодые охотницы за головами / Teenage Bounty Hunters (2020) WEBRip [H.264 / 720p-LQ] (сезон 1, серии 1-10 из 10) VSI Moscow торрент скачать бесплатно

Молодые охотницы за головами / Teenage Bounty Hunters (2020) WEBRip [H.264 / 720p-LQ] (сезон 1, серии 1-10 из 10) VSI MoscowПроизводство: США/Tilted Productions, Netflix
Жанр: Драма, комедия, криминал
Режиссер: Ребекка Эшер, Марк А. Берли, Эндрю ДеЯнг

Актеры
Мэдди Филлипс, Анжелика Бетт Феллини, Кадим Хардисон, Вирджиния Уильямс, Маккензи Эстин, Ширли Румирк, Девон Хейлс, Спенсер Хаус, Чарити Сервантес, Майлс Эванс

Описание

Сестры-старшеклассницы Блэр и Стерлинг днем учатся в школе и пытаются обустроить личную жизнь, а в свободное от этого время зарабатывают на карманные расходы, выслеживая и задерживая беглых преступников.


Дата мировой премьеры: 14 августа 2020
Продолжительность: ~ 00: 50: 00
Качество видео: WEBRip
Перевод: Дублированный (VSI Moscow по заказу Netflix)
Субтитры: Русские (Forced), английские (SDH)
Видео: AVC/H.264, 1280х720, ~2260 Kbps
Аудио 1: E-AC3, 6 ch, 640 Kbps, русский
Аудио 2: E-AC3, 6 ch, 768 Kbps, английский
Общее
Уникальный идентификатор : 230625839020080650355246418459019638280 (0xAD80EBC2301243A0903DFD56FDE2F608)
Полное имя : E: DownloadsTeenage.Bounty.Hunters.S01.720p.NFTeenage.Bounty.Hunters.S01E01.720p.mkv
Формат : Matroska
Версия формата : Version 4
Размер файла : 1, 24 Гбайт
Продолжительность : 49 м. 23 с.
Режим общего битрейта : Переменный
Общий поток : 3 594 Кбит/сек
Дата кодирования : UTC 2020-08-21 17: 01: 48
Программа кодирования : mkvmerge v7.7.0 (\'Six Voices\') 32bit built on Feb 28 2015 23: 23: 00
Библиотека кодирования : libebml v1.3.1 + libmatroska v1.4.2
Видео
Идентификатор : 1
Формат : AVC
Формат/Информация : Advanced Video Codec
Профиль формата : [email protected]
Настройки формата : CABAC/3 Ref Frames
Параметр CABAC формата : Да
Параметр RefFrames формата : 3 кадра
Идентификатор кодека : V_MPEG4/ISO/AVC
Продолжительность : 49 м. 23 с.
Вид битрейта : Переменный
Битрейт : 2 260 Кбит/сек
Максимальный битрейт : 3 390 Кбит/сек
Ширина : 1 280 пикселей
Высота : 720 пикселей
Соотношение сторон : 16: 9
Режим частоты кадров : Постоянный
Частота кадров : 23, 976 (24000/1001) кадра/сек
Цветовое пространство : YUV
Субдискретизация насыщенности : 4: 2: 0
Битовая глубина : 8 бит
Тип развёртки : Прогрессивная
Бит/(Пиксели*Кадры) : 0.102
Размер потока : 771 Мбайт (61%)
Библиотека кодирования : x264 core 148 r2721 6d200cf
Настройки программы : cabac=1/ref=3/deblock=1: 0: 0/analyse=0x1: 0x111/me=umh/subme=10/psy=1/psy_rd=1.00: 0.00/mixed_ref=1/me_range=24/chroma_me=1/trellis=2/8x8dct=0/cqm=0/deadzone=21, 11/fast_pskip=1/chroma_qp_offset=-2/threads=6/lookahead_threads=1/sliced_threads=0/nr=0/decimate=1/interlaced=0/bluray_compat=0/stitchable=1/constrained_intra=0/bframes=2/b_pyramid=0/b_adapt=2/b_bias=0/direct=3/weightb=1/open_gop=0/weightp=2/keyint=250/keyint_min=23/scenecut=0/intra_refresh=0/rc_lookahead=48/rc=2pass/mbtree=1/bitrate=2260/ratetol=1.0/qcomp=0.50/qpmin=6/qpmax=51/qpstep=4/cplxblur=20.0/qblur=0.5/vbv_maxrate=3390/vbv_bufsize=4520/nal_hrd=vbr/filler=0/ip_ratio=1.40/aq=1: 1.00
Язык : English
Default : Да
Forced : Нет
Аудио #1
Идентификатор : 2
Формат : E-AC-3
Формат/Информация : Enhanced AC-3
Коммерческое название : Dolby Digital Plus
Идентификатор кодека : A_EAC3
Продолжительность : 49 м. 23 с.
Вид битрейта : Постоянный
Битрейт : 640 Кбит/сек
Каналы : 6 каналов
Channel layout : L R C LFE Ls Rs
Частота : 48, 0 КГц
Частота кадров : 31, 250 кадров/сек (1536 SPF)
Метод сжатия : С потерями
Размер потока : 226 Мбайт (18%)
Заголовок : Russian
Язык : Russian
Service kind : Complete Main
Default : Да
Forced : Нет
Аудио #2
Идентификатор : 3
Формат : E-AC-3 JOC
Формат/Информация : Enhanced AC-3 with Joint Object Coding
Коммерческое название : Dolby Digital Plus with Dolby Atmos
Идентификатор кодека : A_EAC3
Продолжительность : 49 м. 23 с.
Вид битрейта : Постоянный
Битрейт : 768 Кбит/сек
Каналы : 6 каналов
Channel layout : L R C LFE Ls Rs
Частота : 48, 0 КГц
Частота кадров : 31, 250 кадров/сек (1536 SPF)
Метод сжатия : С потерями
Размер потока : 271 Мбайт (21%)
Заголовок : English Original
Язык : English
Service kind : Complete Main
Default : Нет
Forced : Нет
Complexity index : 16
Number of dynamic objects : 15
Bed channel count : 1 канал
Bed channel configuration : LFE
Текст #1
Идентификатор : 4
Формат : UTF-8
Идентификатор кодека : S_TEXT/UTF8
Идентификатор кодека/Информация : UTF-8 Plain Text
Продолжительность : 48 м. 7 с.
Битрейт : 2 бит/сек
Count of elements : 22
Размер потока : 1, 04 Кбайт (0%)
Заголовок : Forced
Язык : Russian
Default : Да
Forced : Нет
Текст #2
Идентификатор : 5
Формат : UTF-8
Идентификатор кодека : S_TEXT/UTF8
Идентификатор кодека/Информация : UTF-8 Plain Text
Продолжительность : 48 м. 7 с.
Битрейт : 118 бит/сек
Count of elements : 890
Размер потока : 41, 8 Кбайт (0%)
Заголовок : Russian
Язык : Russian
Default : Нет
Forced : Нет
Текст #3
Идентификатор : 6
Формат : UTF-8
Идентификатор кодека : S_TEXT/UTF8
Идентификатор кодека/Информация : UTF-8 Plain Text
Продолжительность : 46 м. 10 с.
Битрейт : 95 бит/сек
Count of elements : 1073
Размер потока : 32, 3 Кбайт (0%)
Заголовок : SDH
Язык : English
Default : Нет
Forced : Нет
Текст #4
Идентификатор : 7
Формат : UTF-8
Идентификатор кодека : S_TEXT/UTF8
Идентификатор кодека/Информация : UTF-8 Plain Text
Продолжительность : 46 м. 10 с.
Битрейт : 95 бит/сек
Count of elements : 1073
Размер потока : 32, 4 Кбайт (0%)
Заголовок : English (CC)
Язык : English
Default : Нет
Forced : Нет

Скриншоты для ознакомления



Все одноименные релизы в Клубе
Время раздачи: 24/7 (до появления первых 3-5 скачавших)

Другие торренты по теме:

  • Молодые и голодные / Young & Hungry (2014) WEB-DL [H.264 / 720p-LQ] (Сезон 1, Серии 1-7 из 10) BaibaKo (обновляемая) скачать через торрент бесплатно
  • Сергей Антонов и др. | Молодые граждане (1953) [FB2]
  • Молодые годы королевы / Madchenjahre einer Konigin (1954) DVD9 скачать через торрент бесплатно
  • Молодые стрелки / Young Guns (1988) HDTVRip [AVO] скачать через торрент бесплатно
  • Молодые стрелки 2 / Young Guns II (1990) HDTVRip [H.264] скачать через торрент бесплатно
  • Молодые стрелки / Young Guns (1988) BDRip [H.264 / 720p] скачать через торрент бесплатно
  • Молодые стрелки / Young Guns (1988) HDRip [H.264] скачать через торрент бесплатно
  • Годы молодые (1958) SATRip скачать через торрент бесплатно

  • Посетители, находящиеся в группе Гости, не могут оставлять комментарии в данной новости.